<?xml version="1.0" standalone="no"?> 
<!DOCTYPE svg PUBLIC "-//W3C//DTD SVG 1.1//EN" "http://www.w3.org/Graphics/SVG/1.1/DTD/svg11.dtd" >
<svg xmlns="http://www.w3.org/2000/svg">
<defs>
  <font id="fontawesome" horiz-adv-x="640">
    <font-face font-family="Font Awesome 5 Solid"
      units-per-em="512" ascent="512"
      descent="0"
      font-weight="900"
      font-style="Solid" />
    <missing-glyph horiz-adv-x="0" />
    <glyph glyph-name="address-book"
      unicode="&#xF2B9;"
      horiz-adv-x="448" d=" M436 352C442.627 352 448 357.373 448 364V404C448 410.627 442.627 416 436 416H416V464C416 490.51 394.51 512 368 512H80C53.49 512 32 490.51 32 464V48C32 21.49 53.49 0 80 0H368C394.51 0 416 21.49 416 48V96H436C442.627 96 448 101.373 448 108V148C448 154.627 442.627 160 436 160H416V224H436C442.627 224 448 229.373 448 236V276C448 282.627 442.627 288 436 288H416V352H436zM224 416C277.019 416 320 373.019 320 320S277.019 224 224 224S128 266.981 128 320S170.981 416 224 416zM352 112C352 85.49 330.51 64 304 64H144C117.49 64 96 85.49 96 112V160.711C96 181.7050000000001 109.644 200.264 129.683 206.526L152.637 213.699C173.563 199.587 198.198 192 224 192S274.437 199.587 295.363 213.699L318.317 206.526C338.356 200.264 352 181.705 352 160.711V112z" />
    <glyph glyph-name="address-card"
      unicode="&#xF2BB;"
      horiz-adv-x="512" d=" M464 448H48C21.49 448 0 426.51 0 400V112C0 85.49 21.49 64 48 64H464C490.51 64 512 85.49 512 112V400C512 426.51 490.51 448 464 448zM176 384C220.183 384 256 348.183 256 304S220.183 224 176 224S96 259.817 96 304S131.817 384 176 384zM288 152C288 138.745 277.255 128 264 128H88C74.745 128 64 138.745 64 152V181.897A24 24 0 0 0 81.407 204.974L110.345 213.242C129.323 199.451 152.087 192 176 192S222.677 199.451 241.656 213.241L270.594 204.973A23.999000000000002 23.999000000000002 0 0 0 288 181.897V152zM448 204C448 197.373 442.627 192 436 192H332C325.373 192 320 197.373 320 204V212C320 218.627 325.373 224 332 224H436C442.627 224 448 218.627 448 212V204zM448 268C448 261.373 442.627 256 436 256H332C325.373 256 320 261.373 320 268V276C320 282.627 325.373 288 332 288H436C442.627 288 448 282.627 448 276V268zM448 332C448 325.373 442.627 320 436 320H332C325.373 320 320 325.373 320 332V340C320 346.627 325.373 352 332 352H436C442.627 352 448 346.627 448 340V332z" />
    <glyph glyph-name="adjust"
      unicode="&#xF042;"
      horiz-adv-x="512" d=" M8 256C8 119.034 119.033 8 256 8S504 119.034 504 256S392.966 504 256 504S8 392.967 8 256zM256 72V440C357.705 440 440 357.689 440 256C440 154.295 357.689 72 256 72z" />
    <glyph glyph-name="alarm-clock"
      unicode="&#xF34E;"
      horiz-adv-x="512" d=" M512 416C512 388.2 500.2 363.2 481.3 345.7C450.8 402.1 399 446.8 335 467.6C352.1 494.3 382 512 416 512C469 512 512 469 512 416zM177 467.6C159.9 494.3 130 512 96 512C43 512 0 469 0 416C0 388.2 11.8 363.2 30.7 345.7C61.2 402.1 113 446.8 177 467.6zM500.3 11.7C484.6 -4 459.3 -3.9 443.7 11.7L401.6 53.8000000000001C362.4 20.3000000000001 311.6 1e-13 256 1e-13S149.5 20.3000000000001 110.4 53.8000000000001L68.3 11.7C52.6 -4 27.3 -3.9 11.7 11.7C-3.9 27.3000000000001 -3.9 52.6 11.7 68.3000000000001L59.6 116.2000000000001C42 148.2 32 184.9 32 224C32 347.7 132.3 448 256 448S480 347.7 480 224C480 184.9 470 148.2 452.4 116.2L500.3 68.3C515.9 52.7 515.9 27.3 500.3 11.7zM346.9 187.9L292 227.9V349.3C292 355.9 286.6 361.3 280 361.3H232C225.4 361.3 220 355.9 220 349.3V197.3C220 193.5 221.8 189.8 224.9 187.6L304.6 129.7000000000001C310 125.8000000000001 317.5 127.0000000000001 321.4000000000001 132.3000000000001L349.6 171.1000000000001C353.5 176.5000000000001 352.3 184.0000000000001 346.9000000000001 187.9000000000001z" />
    <glyph glyph-name="align-center"
      unicode="&#xF037;"
      horiz-adv-x="448" d=" M352 468V428C352 419.163 344.837 412 336 412H112C103.163 412 96 419.163 96 428V468C96 476.837 103.163 484 112 484H336C344.837 484 352 476.837 352 468zM16 284H432C440.837 284 448 291.163 448 300V340C448 348.837 440.837 356 432 356H16C7.163 356 0 348.837 0 340V300C0 291.163 7.163 284 16 284zM16 28H432C440.837 28 448 35.163 448 44V84C448 92.837 440.837 100 432 100H16C7.163 100 0 92.837 0 84V44C0 35.163 7.163 28 16 28zM336 228H112C103.163 228 96 220.837 96 212V172C96 163.163 103.163 156 112 156H336C344.837 156 352 163.163 352 172V212C352 220.837 344.837 228 336 228z" />
    <glyph glyph-name="align-justify"
      unicode="&#xF039;"
      horiz-adv-x="448" d=" M0 428V468C0 476.837 7.163 484 16 484H432C440.837 484 448 476.837 448 468V428C448 419.163 440.837 412 432 412H16C7.163 412 0 419.163 0 428zM16 284H432C440.837 284 448 291.163 448 300V340C448 348.837 440.837 356 432 356H16C7.163 356 0 348.837 0 340V300C0 291.163 7.163 284 16 284zM16 28H432C440.837 28 448 35.163 448 44V84C448 92.837 440.837 100 432 100H16C7.163 100 0 92.837 0 84V44C0 35.163 7.163 28 16 28zM16 156H432C440.837 156 448 163.163 448 172V212C448 220.837 440.837 228 432 228H16C7.163 228 0 220.837 0 212V172C0 163.163 7.163 156 16 156z" />
    <glyph glyph-name="align-left"
      unicode="&#xF036;"
      horiz-adv-x="448" d=" M288 468V428C288 419.163 280.837 412 272 412H16C7.163 412 0 419.163 0 428V468C0 476.837 7.163 484 16 484H272C280.837 484 288 476.837 288 468zM0 340V300C0 291.163 7.163 284 16 284H432C440.837 284 448 291.163 448 300V340C448 348.837 440.837 356 432 356H16C7.163 356 0 348.837 0 340zM16 28H432C440.837 28 448 35.163 448 44V84C448 92.837 440.837 100 432 100H16C7.163 100 0 92.837 0 84V44C0 35.163 7.163 28 16 28zM272 228H16C7.163 228 0 220.837 0 212V172C0 163.163 7.163 156 16 156H272C280.837 156 288 163.163 288 172V212C288 220.837 280.837 228 272 228z" />
    <glyph glyph-name="align-right"
      unicode="&#xF038;"
      horiz-adv-x="448" d=" M160 428V468C160 476.837 167.163 484 176 484H432C440.837 484 448 476.837 448 468V428C448 419.163 440.837 412 432 412H176C167.163 412 160 419.163 160 428zM16 284H432C440.837 284 448 291.163 448 300V340C448 348.837 440.837 356 432 356H16C7.163 356 0 348.837 0 340V300C0 291.163 7.163 284 16 284zM16 28H432C440.837 28 448 35.163 448 44V84C448 92.837 440.837 100 432 100H16C7.163 100 0 92.837 0 84V44C0 35.163 7.163 28 16 28zM176 156H432C440.837 156 448 163.163 448 172V212C448 220.837 440.837 228 432 228H176C167.163 228 160 220.837 160 212V172C160 163.163 167.163 156 176 156z" />
    <glyph glyph-name="ambulance"
      unicode="&#xF0F9;"
      horiz-adv-x="640" d=" M592 512H272C245.49 512 224 490.51 224 464V416H179.882A48 48 0 0 1 145.941 401.9410000000001L46.059 302.059A48 48 0 0 1 32 268.118V160H24C10.745 160 0 149.255 0 136V120C0 106.745 10.745 96 24 96H64C64 42.981 106.981 0 160 0S256 42.981 256 96H384C384 42.981 426.981 0 480 0S576 42.981 576 96H616C629.255 96 640 106.745 640 120V464C640 490.51 618.51 512 592 512zM160 48C133.533 48 112 69.533 112 96S133.533 144 160 144S208 122.467 208 96S186.467 48 160 48zM224 256H80V268.118L179.882 368H224V256zM480 48C453.533 48 432 69.533 432 96S453.533 144 480 144S528 122.467 528 96S506.467 48 480 48zM512 336V304C512 297.373 506.627 292 500 292H444V236C444 229.373 438.627 224 432 224H400C393.373 224 388 229.373 388 236V292H332C325.373 292 320 297.373 320 304V336C320 342.627 325.373 348 332 348H388V404C388 410.627 393.373 416 400 416H432C438.627 416 444 410.627 444 404V348H500C506.627 348 512 342.627 512 336z" />
    <glyph glyph-name="anchor"
      unicode="&#xF13D;"
      horiz-adv-x="576" d=" M12.971 160H45.365C67.172 57.265 181.944 0 288 0C394.229 0 508.853 57.38 530.635 160H563.029C573.72 160 579.074 172.926 571.514 180.485L504.485 247.514C499.799 252.2 492.201 252.2 487.514 247.514L420.485 180.485C412.925 172.925 418.279 160 428.9700000000001 160H464.116C443.826 105.683 379.153 73.412 319.999 65.985V256H371.999C378.6260000000001 256 383.999 261.373 383.999 268V308C383.999 314.627 378.6260000000001 320 371.999 320H319.999V325.4700000000001C357.2800000000001 338.648 383.9940000000001 374.195 383.999 415.988C384.005 468.228 341.605 511.262 289.37 511.99C235.723 512.739 192 469.475 192 416C192 374.202 218.716 338.65 256 325.4700000000001V320H204C197.373 320 192 314.627 192 308V268C192 261.373 197.373 256 204 256H256V65.985C197.064 73.384 132.18 105.664 111.883 160H147.029C157.72 160 163.074 172.926 155.514 180.485L88.485 247.514C83.799 252.2 76.201 252.2 71.514 247.514L4.485 180.485C-3.074 172.926 2.28 160 12.971 160zM288 448C305.645 448 320 433.645 320 416S305.645 384 288 384S256 398.355 256 416S270.355 448 288 448z" />
    <glyph glyph-name="angle-double-down"
      unicode="&#xF103;"
      horiz-adv-x="320" d=" M143 255.7L7 391.7C-2.4 401.1 -2.4 416.3 7 425.6L29.6 448.2C39 457.6 54.2 457.6 63.5 448.2L159.9 351.8L256.3 448.2C265.7 457.6 280.9000000000001 457.6 290.2 448.2L313 425.7C322.4 416.3 322.4 401.1 313 391.8L177 255.8C167.6 246.3 152.4 246.3 143 255.7zM177 63.7L313 199.7C322.4 209.1 322.4 224.3 313 233.6L290.4 256.2C281 265.6 265.8 265.6 256.5 256.2L160 159.9L63.6 256.3C54.2 265.7 39 265.7 29.7 256.3L7 233.7C-2.4 224.3 -2.4 209.1 7 199.8L143 63.8C152.4 54.3 167.6 54.3 177 63.7z" />
    <glyph glyph-name="angle-double-left"
      unicode="&#xF100;"
      horiz-adv-x="448" d=" M223.7 273L359.7 409C369.1 418.4 384.3 418.4 393.6 409L416.2 386.4C425.6 377 425.6 361.8 416.2 352.5L319.9 256L416.3 159.6C425.7 150.2000000000001 425.7 135 416.3 125.7000000000001L393.7 103C384.3 93.6 369.1 93.6 359.8 103L223.8 239C214.3 248.4 214.3 263.6 223.7 273zM31.7 239L167.7 103C177.1 93.6 192.3 93.6 201.6 103L224.2 125.6C233.6 135 233.6 150.2000000000001 224.2 159.5L127.9 256L224.3 352.4C233.7 361.8 233.7 377 224.3 386.3L201.7 409C192.3 418.4 177.1 418.4 167.8 409L31.8 273C22.3 263.6 22.3 248.4 31.7 239z" />
    <glyph glyph-name="angle-double-right"
      unicode="&#xF101;"
      horiz-adv-x="448" d=" M224.3 239L88.3 103C78.9 93.6 63.7 93.6 54.4 103L31.8 125.6C22.4 135 22.4 150.2000000000001 31.8 159.5L128.2 255.9L31.8 352.3C22.4 361.7 22.4 376.9 31.8 386.2L54.3 409C63.7 418.4 78.9 418.4 88.2 409L224.2 273C233.7 263.6 233.7 248.4 224.3 239zM416.3 273L280.3 409C270.9000000000001 418.4 255.7 418.4 246.4 409L223.8 386.4C214.4 377 214.4 361.8 223.8 352.5L320.2000000000001 256.1L223.8000000000001 159.7C214.4 150.3 214.4 135.1 223.8000000000001 125.8L246.4000000000001 103.2C255.8000000000001 93.8 271.0000000000001 93.8 280.3 103.2L416.3 239.2C425.7 248.4 425.7 263.6 416.3 273z" />
    <glyph glyph-name="angle-double-up"
      unicode="&#xF102;"
      horiz-adv-x="320" d=" M177 256.3L313 120.3C322.4 110.9 322.4 95.7 313 86.4L290.4 63.8C281 54.4 265.8 54.4 256.5 63.8L160 160.1L63.6 63.7000000000001C54.2 54.3000000000001 39 54.3000000000001 29.7 63.7000000000001L7 86.3C-2.4 95.7 -2.4 110.9 7 120.2L143 256.2C152.4 265.7 167.6 265.7 177 256.3zM143 448.3L7 312.3C-2.4 302.9 -2.4 287.7000000000001 7 278.4L29.6 255.8C39 246.4000000000001 54.2 246.4000000000001 63.5 255.8L159.9 352.2000000000001L256.3 255.8C265.7 246.4000000000001 280.9000000000001 246.4000000000001 290.2 255.8L312.8 278.4C322.2 287.8 322.2 303 312.8 312.3L176.8 448.3C167.6 457.7 152.4 457.7 143 448.3z" />
    <glyph glyph-name="angle-down"
      unicode="&#xF107;"
      horiz-adv-x="320" d=" M143 159.7L7 295.7C-2.4 305.1 -2.4 320.3 7 329.6L29.6 352.2C39 361.6 54.2 361.6 63.5 352.2L159.9 255.8L256.3 352.2C265.7 361.6 280.9000000000001 361.6 290.2 352.2L312.8 329.6C322.2 320.2 322.2 305 312.8 295.7L176.8 159.6999999999999C167.6 150.3 152.4 150.3 143 159.6999999999999z" />
    <glyph glyph-name="angle-left"
      unicode="&#xF104;"
      horiz-adv-x="256" d=" M31.7 273L167.7 409C177.1 418.4 192.3 418.4 201.6 409L224.2 386.4C233.6 377 233.6 361.8 224.2 352.5L127.9 256L224.3 159.6C233.7 150.2000000000001 233.7 135 224.3 125.7000000000001L201.7 103C192.3 93.6 177.1 93.6 167.8 103L31.8 239C22.3 248.4 22.3 263.6 31.7 273z" />
    <glyph glyph-name="angle-right"
      unicode="&#xF105;"
      horiz-adv-x="256" d=" M224.3 239L88.3 103C78.9 93.6 63.7 93.6 54.4 103L31.8 125.6C22.4 135 22.4 150.2000000000001 31.8 159.5L128.2 255.9L31.8 352.3C22.4 361.7 22.4 376.9 31.8 386.2L54.3 409C63.7 418.4 78.9 418.4 88.2 409L224.2 273C233.7 263.6 233.7 248.4 224.3 239z" />
    <glyph glyph-name="angle-up"
      unicode="&#xF106;"
      horiz-adv-x="320" d=" M177 352.3L313 216.3C322.4 206.9 322.4 191.7 313 182.4L290.4 159.8C281 150.4 265.8 150.4 256.5 159.8L160 256.1L63.6 159.7C54.2 150.3 39 150.3 29.7 159.7L7 182.3C-2.4 191.7 -2.4 206.9 7 216.2L143 352.2C152.4 361.7 167.6 361.7 177 352.3z" />
    <glyph glyph-name="archive"
      unicode="&#xF187;"
      horiz-adv-x="512" d=" M488 384H24C10.745 384 0 394.745 0 408V456C0 469.255 10.745 480 24 480H488C501.255 480 512 469.255 512 456V408C512 394.745 501.255 384 488 384zM480 56V328C480 341.255 469.255 352 456 352H56C42.745 352 32 341.255 32 328V56C32 42.745 42.745 32 56 32H456C469.255 32 480 42.745 480 56zM308 256H204C197.373 256 192 261.373 192 268V276C192 282.627 197.373 288 204 288H308C314.627 288 320 282.627 320 276V268C320 261.373 314.627 256 308 256z" />
    <glyph glyph-name="arrow-alt-circle-down"
      unicode="&#xF358;"
      horiz-adv-x="512" d=" M504 256C504 119 393 8 256 8S8 119 8 256S119 504 256 504S504 393 504 256zM212 372V256H141.1C130.4 256 125 243 132.6 235.5L247.5 121.2C252.2 116.5 259.7 116.5 264.4 121.2L379.3 235.5C386.9 243.1 381.5 256 370.8 256H300V372C300 378.6 294.6 384 288 384H224C217.4 384 212 378.6 212 372z" />
    <glyph glyph-name="arrow-alt-circle-left"
      unicode="&#xF359;"
      horiz-adv-x="512" d=" M256 8C119 8 8 119 8 256S119 504 256 504S504 393 504 256S393 8 256 8zM372 300H256V370.9C256 381.6 243 387 235.5 379.4L121.2 264.5C116.5 259.8 116.5 252.3 121.2 247.6L235.5 132.7000000000001C243.1 125.1 256 130.5000000000001 256 141.2000000000001V212H372C378.6 212 384 217.4 384 224V288C384 294.6 378.6 300 372 300z" />
    <glyph glyph-name="arrow-alt-circle-right"
      unicode="&#xF35A;"
      horiz-adv-x="512" d=" M256 504C393 504 504 393 504 256S393 8 256 8S8 119 8 256S119 504 256 504zM140 212H256V141.1C256 130.4 269 125 276.5 132.6L390.8 247.5C395.5 252.2 395.5 259.7 390.8 264.4L276.5 379.4C268.9 387 256 381.6 256 370.9V300H140C133.4 300 128 294.6 128 288V224C128 217.4 133.4 212 140 212z" />
    <glyph glyph-name="arrow-alt-circle-up"
      unicode="&#xF35B;"
      horiz-adv-x="512" d=" M8 256C8 393 119 504 256 504S504 393 504 256S393 8 256 8S8 119 8 256zM300 140V256H370.9C381.6 256 387 269 379.4 276.5L264.5 390.8C259.8 395.5 252.3 395.5 247.6 390.8L132.6 276.5C125 268.9 130.4 256 141.1 256H212V140C212 133.4 217.4 128 224 128H288C294.6 128 300 133.4 300 140z" />
    <glyph glyph-name="arrow-alt-down"
      unicode="&#xF354;"
      horiz-adv-x="448" d=" M176 480H272C285.3 480 296 469.3 296 456V256H399.8C421.2 256 431.9000000000001 230.2 416.8 215L241 39C231.6 29.6 216.4 29.6 207 39L31.3 215C16.2 230.1 26.9 256 48.3 256H152V456C152 469.3 162.7 480 176 480z" />
    <glyph glyph-name="arrow-alt-from-bottom"
      unicode="&#xF346;"
      horiz-adv-x="384" d=" M360 32H24C10.7 32 0 42.7 0 56V80C0 93.3 10.7 104 24 104H360C373.3 104 384 93.3 384 80V56C384 42.7 373.3 32 360 32zM256 152V288H343.7C361.5 288 370.4 309.5 357.8 322.1L205.7 474.3C198.2 481.8 185.9 481.8 178.4 474.3L26.1 322.1C13.5 309.5 22.5 288 40.3 288H128V152C128 138.7 138.7 128 152 128H232C245.3 128 256 138.7 256 152z" />
    <glyph glyph-name="arrow-alt-from-left"
      unicode="&#xF347;"
      horiz-adv-x="448" d=" M0 88V424C0 437.3 10.7 448 24 448H48C61.3 448 72 437.3 72 424V88C72 74.7 61.3 64 48 64H24C10.7 64 0 74.7 0 88zM120 192H256V104.3C256 86.5 277.5 77.6 290.1 90.2L442.3 242.4C449.8 249.9 449.8 262.2 442.3 269.7L290.1 421.9C277.5 434.5 256 425.6 256 407.8V320H120C106.7 320 96 309.3 96 296V216C96 202.7 106.7 192 120 192z" />
    <glyph glyph-name="arrow-alt-from-right"
      unicode="&#xF348;"
      horiz-adv-x="448" d=" M448 424V88C448 74.7 437.3 64 424 64H400C386.7 64 376 74.7 376 88V424C376 437.3 386.7 448 400 448H424C437.3 448 448 437.3 448 424zM328 320H192V407.7C192 425.5 170.5 434.4 157.9 421.8L5.7 269.7C-1.8 262.2 -1.8 249.9 5.7 242.4L157.9 90.2C170.5 77.6 192 86.5 192 104.3V192H328C341.3 192 352 202.7 352 216V296C352 309.3 341.3 320 328 320z" />
    <glyph glyph-name="arrow-alt-from-top"
      unicode="&#xF349;"
      horiz-adv-x="384" d=" M24 480H360C373.3 480 384 469.3 384 456V432C384 418.7 373.3 408 360 408H24C10.7 408 0 418.7 0 432V456C0 469.3 10.7 480 24 480zM128 360V224H40.3C22.5 224 13.6 202.5 26.2 189.9L178.4 37.7C185.9 30.2 198.2 30.2 205.7 37.7L357.9 189.9C370.5 202.5 361.6 224 343.8 224H256V360C256 373.3 245.3 384 232 384H152C138.7 384 128 373.3 128 360z" />
    <glyph glyph-name="arrow-alt-left"
      unicode="&#xF355;"
      horiz-adv-x="448" d=" M448 304V208C448 194.7 437.3 184 424 184H224V80.2C224 58.8 198.2 48.1 183 63.2L7 239C-2.4 248.4 -2.4 263.6 7 273L183 448.7C198.1 463.8 224 453.1 224 431.7V328H424C437.3 328 448 317.3 448 304z" />
    <glyph glyph-name="arrow-alt-right"
      unicode="&#xF356;"
      horiz-adv-x="448" d=" M0 208V304C0 317.3 10.7 328 24 328H224V431.8C224 453.2 249.8 463.9 265 448.8L441 273C450.4 263.6 450.4 248.4 441 239L265 63.3C249.9 48.2 224 58.9 224 80.3V184H24C10.7 184 0 194.7 0 208z" />
    <glyph glyph-name="arrow-alt-square-down"
      unicode="&#xF350;"
      horiz-adv-x="448" d=" M448 432V80C448 53.5 426.5 32 400 32H48C21.5 32 0 53.5 0 80V432C0 458.5 21.5 480 48 480H400C426.5 480 448 458.5 448 432zM180 372V256H109.1C98.4 256 93 243 100.6 235.5L215.5 121.2C220.2 116.5 227.7 116.5 232.4 121.2L347.3 235.5C354.9000000000001 243.1 349.5 256 338.8 256H268V372C268 378.6 262.6 384 256 384H192C185.4 384 180 378.6 180 372z" />
    <glyph glyph-name="arrow-alt-square-left"
      unicode="&#xF351;"
      horiz-adv-x="448" d=" M400 32H48C21.5 32 0 53.5 0 80V432C0 458.5 21.5 480 48 480H400C426.5 480 448 458.5 448 432V80C448 53.5 426.5 32 400 32zM340 300H224V370.9C224 381.6 211 387 203.5 379.4L89.2 264.5C84.5 259.8 84.5 252.3 89.2 247.6L203.5 132.7000000000001C211.1 125.1 224 130.5000000000001 224 141.2000000000001V212H340C346.6 212 352 217.4 352 224V288C352 294.6 346.6 300 340 300z" />
    <glyph glyph-name="arrow-alt-square-right"
      unicode="&#xF352;"
      horiz-adv-x="448" d=" M48 480H400C426.5 480 448 458.5 448 432V80C448 53.5 426.5 32 400 32H48C21.5 32 0 53.5 0 80V432C0 458.5 21.5 480 48 480zM108 212H224V141.1C224 130.4 237 125 244.5 132.6L358.8 247.5C363.5 252.2 363.5 259.7 358.8 264.4L244.5 379.4C236.9 387 224 381.6 224 370.9V300H108C101.4 300 96 294.6 96 288V224C96 217.4 101.4 212 108 212z" />
    <glyph glyph-name="arrow-alt-square-up"
      unicode="&#xF353;"
      horiz-adv-x="448" d=" M0 80V432C0 458.5 21.5 480 48 480H400C426.5 480 448 458.5 448 432V80C448 53.5 426.5 32 400 32H48C21.5 32 0 53.5 0 80zM268 140V256H338.9C349.6 256 355 269 347.4 276.5L232.5 390.8C227.8 395.5 220.3 395.5 215.6 390.8L100.6 276.5C93 269 98.4 256 109.1 256H180V140C180 133.4 185.4 128 192 128H256C262.6 128 268 133.4 268 140z" />
    <glyph glyph-name="arrow-alt-to-bottom"
      unicode="&#xF34A;"
      horiz-adv-x="384" d=" M360 32H24C10.7 32 0 42.7 0 56V80C0 93.3 10.7 104 24 104H360C373.3 104 384 93.3 384 80V56C384 42.7 373.3 32 360 32zM128 456V320H40.3C22.5 320 13.6 298.5 26.2 285.9L178.4 133.7000000000001C185.9 126.2000000000001 198.2 126.2000000000001 205.7 133.7000000000001L357.9 285.9000000000001C370.5 298.5 361.6 320 343.8 320H256V456C256 469.3 245.3 480 232 480H152C138.7 480 128 469.3 128 456z" />
    <glyph glyph-name="arrow-alt-to-left"
      unicode="&#xF34B;"
      horiz-adv-x="448" d=" M0 88V424C0 437.3 10.7 448 24 448H48C61.3 448 72 437.3 72 424V88C72 74.7 61.3 64 48 64H24C10.7 64 0 74.7 0 88zM424 320H288V407.7C288 425.5 266.5 434.4 253.9 421.8L101.7 269.7C94.2 262.2 94.2 249.9 101.7 242.4L253.9 90.2C266.5 77.6 288 86.5 288 104.3V192H424C437.3 192 448 202.7 448 216V296C448 309.3 437.3 320 424 320z" />
    <glyph glyph-name="arrow-alt-to-right"
      unicode="&#xF34C;"
      horiz-adv-x="448" d=" M448 424V88C448 74.7 437.3 64 424 64H400C386.7 64 376 74.7 376 88V424C376 437.3 386.7 448 400 448H424C437.3 448 448 437.3 448 424zM24 192H160V104.3C160 86.5 181.5 77.6 194.1 90.2L346.3 242.4C353.8 249.9 353.8 262.2 346.3 269.7L194.1 421.9C181.5 434.5 160 425.6 160 407.8V320H24C10.7 320 0 309.3 0 296V216C0 202.7 10.7 192 24 192z" />
    <glyph glyph-name="arrow-alt-to-top"
      unicode="&#xF34D;"
      horiz-adv-x="384" d=" M24 480H360C373.3 480 384 469.3 384 456V432C384 418.7 373.3 408 360 408H24C10.7 408 0 418.7 0 432V456C0 469.3 10.7 480 24 480zM256 56V192H343.7C361.5 192 370.4 213.5 357.8 226.1L205.7 378.3C198.2 385.8 185.9 385.8 178.4 378.3L26.1 226.1C13.5 213.5 22.5 192 40.3 192H128V56C128 42.7 138.7 32 152 32H232C245.3 32 256 42.7 256 56z" />
    <glyph glyph-name="arrow-alt-up"
      unicode="&#xF357;"
      horiz-adv-x="448" d=" M272 32H176C162.7 32 152 42.7 152 56V256H48.2C26.8 256 16.1 281.8 31.2 297L207 473C216.4 482.4 231.6 482.4 241 473L416.8 297C431.9000000000001 281.9 421.2 256 399.8 256H296V56C296 42.7 285.3 32 272 32z" />
    <glyph glyph-name="arrow-circle-down"
      unicode="&#xF0AB;"
      horiz-adv-x="512" d=" M504 256C504 119 393 8 256 8S8 119 8 256S119 504 256 504S504 393 504 256zM360.4 284.9L288 209.4V392C288 405.3 277.3 416 264 416H248C234.7 416 224 405.3 224 392V209.4L151.6 284.9C142.3 294.6 126.8 294.8 117.3 285.3L106.4 274.3C97 264.9 97 249.7 106.4 240.4L239 107.7C248.4 98.3 263.6 98.3 272.9 107.7L405.6 240.4C415 249.8 415 265 405.6 274.3L394.7 285.3C385.2 294.8 369.7 294.6 360.4 284.9z" />
    <glyph glyph-name="arrow-circle-left"
      unicode="&#xF0A8;"
      horiz-adv-x="512" d=" M256 8C119 8 8 119 8 256S119 504 256 504S504 393 504 256S393 8 256 8zM284.9 151.6L209.4 224H392C405.3 224 416 234.7 416 248V264C416 277.3 405.3 288 392 288H209.4L284.9 360.4C294.6 369.7000000000001 294.8 385.2 285.3 394.7L274.3 405.6C264.9 415 249.7 415 240.4 405.6L107.7 273C98.3 263.6 98.3 248.4 107.7 239.1L240.4 106.4C249.8 97.0000000000001 265 97.0000000000001 274.3 106.4L285.3 117.3C294.8 126.8 294.6 142.3 284.9 151.6z" />
    <glyph glyph-name="arrow-circle-right"
      unicode="&#xF0A9;"
      horiz-adv-x="512" d=" M256 504C393 504 504 393 504 256S393 8 256 8S8 119 8 256S119 504 256 504zM227.1 360.4L302.6 288H120C106.7 288 96 277.3 96 264V248C96 234.7 106.7 224 120 224H302.6L227.1 151.6C217.4 142.3 217.2 126.8 226.7 117.3L237.7 106.4C247.1 97.0000000000001 262.3 97.0000000000001 271.6 106.4L404.3 239C413.7 248.4 413.7 263.6 404.3 272.9L271.6 405.7C262.2000000000001 415.1 247.0000000000001 415.1 237.7 405.7L226.7 394.8C217.2 385.2 217.4 369.7 227.1 360.4z" />
    <glyph glyph-name="arrow-circle-up"
      unicode="&#xF0AA;"
      horiz-adv-x="512" d=" M8 256C8 393 119 504 256 504S504 393 504 256S393 8 256 8S8 119 8 256zM151.6 227.1L224 302.6V120C224 106.7 234.7 96 248 96H264C277.3 96 288 106.7 288 120V302.6L360.4 227.1C369.7 217.4 385.2 217.2000000000001 394.7 226.7000000000001L405.6 237.7000000000001C415 247.1 415 262.3000000000001 405.6 271.6L273 404.3C263.6 413.7 248.4 413.7 239.1 404.3L106.3 271.6C96.9 262.2 96.9 247 106.3 237.7L117.2 226.7C126.8 217.2 142.3 217.4 151.6 227.1z" />
    <glyph glyph-name="arrow-down"
      unicode="&#xF063;"
      horiz-adv-x="448" d=" M413.1 289.5L435.3 267.3C444.7 257.9 444.7 242.7 435.3 233.4000000000001L241 39C231.6 29.6 216.4 29.6 207.1 39L12.7 233.4C3.3 242.8 3.3 258 12.7 267.3L34.9 289.5C44.4 299 59.9 298.8 69.2 289.1L184 168.6V456C184 469.3 194.7 480 208 480H240C253.3 480 264 469.3 264 456V168.6L378.8 289.1C388.1 298.9000000000001 403.6 299.1 413.1 289.5z" />
    <glyph glyph-name="arrow-from-bottom"
      unicode="&#xF342;"
      horiz-adv-x="384" d=" M360 32H24C10.7 32 0 42.7 0 56V80C0 93.3 10.7 104 24 104H360C373.3 104 384 93.3 384 80V56C384 42.7 373.3 32 360 32zM90.4 295.5L156 361.1V152C156 138.7 166.7 128 180 128H204C217.3 128 228 138.7 228 152V361.1L293.6 295.5C303 286.1 318.2000000000001 286.1 327.5 295.5L344.5 312.5C353.9 321.9 353.9 337.1 344.5 346.4L209 481.9C199.6 491.3 184.4 491.3 175.1 481.9L39.5 346.4C30.1 337 30.1 321.8 39.5 312.5L56.5 295.5C65.9 286.1 81.1 286.1 90.4 295.5z" />
    <glyph glyph-name="arrow-from-left"
      unicode="&#xF343;"
      horiz-adv-x="448" d=" M0 88V424C0 437.3 10.7 448 24 448H48C61.3 448 72 437.3 72 424V88C72 74.7 61.3 64 48 64H24C10.7 64 0 74.7 0 88zM254.5 357.6L320.1 292H120C106.7 292 96 281.3000000000001 96 268V244C96 230.7 106.7 220 120 220H320.1L254.5000000000001 154.4C245.1 145 245.1 129.8 254.5000000000001 120.5L271.5 103.5C280.9 94.1 296.1 94.1 305.4 103.5L441 239C450.4 248.4 450.4 263.6 441 272.9L305.5 408.5C296.1 417.9 280.9 417.9 271.6 408.5L254.6 391.5C245.2 382.1 245.2 366.9 254.5000000000001 357.6z" />
    <glyph glyph-name="arrow-from-right"
      unicode="&#xF344;"
      horiz-adv-x="448" d=" M448 424V88C448 74.7 437.3 64 424 64H400C386.7 64 376 74.7 376 88V424C376 437.3 386.7 448 400 448H424C437.3 448 448 437.3 448 424zM193.5 154.4L127.9 220H328C341.3 220 352 230.7 352 244V268C352 281.3 341.3 292 328 292H127.9L193.5 357.6C202.9 367 202.9 382.2 193.5 391.5L176.5 408.5C167.1 417.9 151.9 417.9 142.6 408.5L7 273C-2.4 263.6 -2.4 248.4 7 239.1L142.5 103.6C151.9 94.2000000000001 167.1 94.2000000000001 176.4 103.6L193.4 120.6C202.8 129.9 202.8 145.1 193.5 154.4z" />
    <glyph glyph-name="arrow-from-top"
      unicode="&#xF345;"
      horiz-adv-x="384" d=" M24 480H360C373.3 480 384 469.3 384 456V432C384 418.7 373.3 408 360 408H24C10.7 408 0 418.7 0 432V456C0 469.3 10.7 480 24 480zM293.6 216.5L228 150.9V360C228 373.3 217.3 384 204 384H180C166.7 384 156 373.3 156 360V150.9L90.4 216.5C81 225.9 65.8 225.9 56.5 216.5L39.5 199.5C30.1 190.1 30.1 174.9 39.5 165.6L175 30.1C184.4 20.7 199.6 20.7 208.9 30.1L344.4 165.6C353.8 175 353.8 190.2000000000001 344.4 199.5L327.4 216.5C318.1 225.9 302.9 225.9 293.6 216.5z" />
    <glyph glyph-name="arrow-left"
      unicode="&#xF060;"
      horiz-adv-x="448" d=" M257.5 66.9L235.3 44.7C225.9 35.3 210.7 35.3 201.4 44.7L7 239C-2.4 248.4 -2.4 263.6 7 272.9L201.4 467.3C210.8 476.7 226 476.7 235.3 467.3L257.5 445.1C267 435.6 266.8 420.1 257.1 410.8L136.6 296H424C437.3 296 448 285.3 448 272V240C448 226.7 437.3 216 424 216H136.6L257.1 101.2C266.9000000000001 91.9 267.1 76.4 257.5 66.9z" />
    <glyph glyph-name="arrow-right"
      unicode="&#xF061;"
      horiz-adv-x="448" d=" M190.5 445.1L212.7 467.3C222.1 476.7 237.3 476.7 246.6 467.3L441 273C450.4 263.6 450.4 248.4 441 239.1L246.6 44.7C237.2 35.3 222 35.3 212.7 44.7L190.5 66.9C181 76.4 181.2 91.9 190.9 101.2L311.4 216H24C10.7 216 0 226.7 0 240V272C0 285.3 10.7 296 24 296H311.4L190.9 410.8C181.1 420.1 180.9 435.6 190.5 445.1z" />
    <glyph glyph-name="arrow-square-down"
      unicode="&#xF339;"
      horiz-adv-x="448" d=" M448 432V80C448 53.5 426.5 32 400 32H48C21.5 32 0 53.5 0 80V432C0 458.5 21.5 480 48 480H400C426.5 480 448 458.5 448 432zM328.4 284.9L256 209.4V392C256 405.3 245.3 416 232 416H216C202.7 416 192 405.3 192 392V209.4L119.6 284.9C110.3 294.6 94.8 294.8 85.3 285.3L74.4 274.3C65 264.9 65 249.7 74.4 240.4L207 107.7C216.4 98.3 231.6 98.3 240.9 107.7L373.6 240.4C383 249.8 383 265 373.6 274.3L362.7000000000001 285.3C353.2000000000001 294.8 337.7000000000001 294.6 328.4000000000001 284.9z" />
    <glyph glyph-name="arrow-square-left"
      unicode="&#xF33A;"
      horiz-adv-x="448" d=" M400 32H48C21.5 32 0 53.5 0 80V432C0 458.5 21.5 480 48 480H400C426.5 480 448 458.5 448 432V80C448 53.5 426.5 32 400 32zM252.9 151.6L177.4 224H360C373.3 224 384 234.7 384 248V264C384 277.3 373.3 288 360 288H177.4L252.9 360.4C262.6 369.7000000000001 262.8 385.2 253.3 394.7L242.3 405.6C232.9 415 217.7 415 208.4 405.6L75.7 273C66.3 263.6 66.3 248.4 75.7 239.1L208.4 106.4C217.8 97.0000000000001 233 97.0000000000001 242.3 106.4L253.3 117.3C262.8 126.8 262.6 142.3 252.9 151.6z" />
    <glyph glyph-name="arrow-square-right"
      unicode="&#xF33B;"
      horiz-adv-x="448" d=" M48 480H400C426.5 480 448 458.5 448 432V80C448 53.5 426.5 32 400 32H48C21.5 32 0 53.5 0 80V432C0 458.5 21.5 480 48 480zM195.1 360.4L270.6 288H88C74.7 288 64 277.3 64 264V248C64 234.7 74.7 224 88 224H270.6L195.1 151.6C185.4 142.3 185.2 126.8 194.7 117.3L205.7 106.4C215.1 97.0000000000001 230.3 97.0000000000001 239.6 106.4L372.3 239C381.7 248.4 381.7 263.6 372.3 272.9L239.6 405.7C230.2 415.1 215 415.1 205.7 405.7L194.7 394.8C185.2 385.2 185.4 369.7 195.1 360.4z" />
    <glyph glyph-name="arrow-square-up"
      unicode="&#xF33C;"
      horiz-adv-x="448" d=" M0 80V432C0 458.5 21.5 480 48 480H400C426.5 480 448 458.5 448 432V80C448 53.5 426.5 32 400 32H48C21.5 32 0 53.5 0 80zM119.6 227.1L192 302.6V120C192 106.7 202.7 96 216 96H232C245.3 96 256 106.7 256 120V302.6L328.4 227.1C337.7 217.4 353.2 217.2000000000001 362.7 226.7000000000001L373.6 237.7000000000001C383 247.1 383 262.3000000000001 373.6 271.6L241 404.3C231.6 413.7 216.4 413.7 207.1 404.3L74.3 271.6C64.9 262.2 64.9 247 74.3 237.7L85.2 226.7C94.8 217.2 110.3 217.4 119.6 227.1z" />
    <glyph glyph-name="arrow-to-bottom"
      unicode="&#xF33D;"
      horiz-adv-x="384" d=" M360 32H24C10.7 32 0 42.7 0 56V80C0 93.3 10.7 104 24 104H360C373.3 104 384 93.3 384 80V56C384 42.7 373.3 32 360 32zM293.6 312.5L228 246.9V456C228 469.3 217.3 480 204 480H180C166.7 480 156 469.3 156 456V246.9L90.4 312.5C81 321.9 65.8 321.9 56.5 312.5L39.5 295.5C30.1 286.1 30.1 270.9 39.5 261.6L175 126.1C184.4 116.7000000000001 199.6 116.7000000000001 208.9 126.1L344.4 261.6C353.8 271 353.8 286.2000000000001 344.4 295.5L327.4 312.5C318.1 321.9000000000001 302.9 321.9000000000001 293.6 312.5z" />
    <glyph glyph-name="arrow-to-left"
      unicode="&#xF33E;"
      horiz-adv-x="448" d=" M0 88V424C0 437.3 10.7 448 24 448H48C61.3 448 72 437.3 72 424V88C72 74.7 61.3 64 48 64H24C10.7 64 0 74.7 0 88zM280.5 154.4L214.9 220H424C437.3 220 448 230.7 448 244V268C448 281.3 437.3 292 424 292H214.9L280.5 357.6C289.9 367 289.9 382.2 280.5 391.5L263.5 408.5C254.1 417.9 238.9 417.9 229.6 408.5L94.1 273C84.7 263.6 84.7 248.4 94.1 239.1L229.6 103.6C239 94.2000000000001 254.2 94.2000000000001 263.5 103.6L280.5 120.6C289.9 129.9 289.9 145.1 280.5 154.4z" />
    <glyph glyph-name="arrow-to-right"
      unicode="&#xF340;"
      horiz-adv-x="448" d=" M448 424V88C448 74.7 437.3 64 424 64H400C386.7 64 376 74.7 376 88V424C376 437.3 386.7 448 400 448H424C437.3 448 448 437.3 448 424zM167.5 357.6L233.1 292H24C10.7 292 0 281.3 0 268V244C0 230.7 10.7 220 24 220H233.1L167.5 154.4C158.1 145 158.1 129.8 167.5 120.5L184.5 103.5C193.9 94.1 209.1 94.1 218.4 103.5L353.9 239C363.3 248.4 363.3 263.6 353.9 272.9L218.4 408.5C209 417.9 193.8 417.9 184.5 408.5L167.5 391.5C158.1 382.1 158.1 366.9 167.5 357.6z" />
    <glyph glyph-name="arrow-to-top"
      unicode="&#xF341;"
      horiz-adv-x="384" d=" M24 480H360C373.3 480 384 469.3 384 456V432C384 418.7 373.3 408 360 408H24C10.7 408 0 418.7 0 432V456C0 469.3 10.7 480 24 480zM90.4 199.5L156 265.1V56C156 42.7 166.7 32 180 32H204C217.3 32 228 42.7 228 56V265.1L293.6 199.5C303 190.1 318.2000000000001 190.1 327.5 199.5L344.5 216.5C353.9 225.9 353.9 241.1 344.5 250.4L209 385.9C199.6 395.3 184.4 395.3 175.1 385.9L39.5 250.4C30.1 241 30.1 225.8 39.5 216.5L56.5 199.5C65.9 190.1 81.1 190.1 90.4 199.5z" />
    <glyph glyph-name="arrow-up"
      unicode="&#xF062;"
      horiz-adv-x="448" d=" M34.9 222.5L12.7 244.7C3.3 254.1 3.3 269.3 12.7 278.6L207 473C216.4 482.4 231.6 482.4 240.9 473L435.2000000000001 278.7C444.6 269.3 444.6 254.1 435.2000000000001 244.8L413 222.6C403.5 213.1 388 213.3 378.7 223L264 343.4V56C264 42.7 253.3 32 240 32H208C194.7 32 184 42.7 184 56V343.4L69.2 222.9C59.9 213.1 44.4 212.9 34.9 222.5z" />
    <glyph glyph-name="arrows-alt-h"
      unicode="&#xF337;"
      horiz-adv-x="512" d=" M377.941 342.059V296H134.059V342.059C134.059 363.4410000000001 108.208 374.149 93.088 359.03L7.029 272.971C-2.344 263.598 -2.344 248.403 7.029 239.03L93.088 152.971C108.207 137.852 134.059 148.56 134.059 169.942V216H377.9410000000001V169.941C377.9410000000001 148.559 403.7920000000001 137.851 418.9120000000001 152.97L504.971 239.029C514.344 248.402 514.344 263.597 504.971 272.9700000000001L418.9120000000001 359.029C403.793 374.149 377.9410000000001 363.4410000000001 377.9410000000001 342.059z" />
    <glyph glyph-name="arrows-alt-v"
      unicode="&#xF338;"
      horiz-adv-x="256" d=" M214.059 134.059H168V377.9410000000001H214.059C235.441 377.9410000000001 246.149 403.7920000000001 231.03 418.9120000000001L144.971 504.971C135.598 514.344 120.403 514.344 111.03 504.971L24.971 418.9120000000001C9.852 403.793 20.56 377.9410000000001 41.942 377.9410000000001H88V134.059H41.941C20.559 134.059 9.851 108.208 24.97 93.088L111.029 7.029C120.402 -2.3440000000001 135.597 -2.3440000000001 144.97 7.029L231.029 93.088C246.149 108.207 235.441 134.059 214.059 134.059z" />
    <glyph glyph-name="arrows-alt"
      unicode="&#xF0B2;"
      horiz-adv-x="512" d=" M352.201 86.225L273.005 7.029C263.632 -2.3440000000001 248.437 -2.3440000000001 239.064 7.029L159.868 86.225C144.749 101.3440000000001 155.457 127.196 176.839 127.1950000000001H228.001L228 228H127.196V176.838C127.196 155.456 101.345 144.7480000000001 86.225 159.867L7.029 239.063C-2.344 248.436 -2.344 263.632 7.029 273.004L86.225 352.2C101.344 367.319 127.196 356.611 127.196 335.229V284H228V384.804H176.77C155.388 384.804 144.68 410.655 159.799 425.775L238.995 504.971C248.368 514.344 263.563 514.344 272.9360000000001 504.971L352.1320000000001 425.775C367.2510000000001 410.656 356.5430000000001 384.804 335.1610000000001 384.804H283.9990000000001V284H384.8030000000001V335.1620000000001C384.8030000000001 356.544 410.6540000000001 367.252 425.7730000000002 352.1330000000001L504.9690000000002 272.937C514.3420000000002 263.564 514.3420000000002 248.368 504.9690000000002 238.996L425.773 159.8C410.654 144.6810000000001 384.802 155.389 384.803 176.771V228H284V127.196H335.23C356.612 127.196 367.3200000000001 101.345 352.201 86.225z" />
    <glyph glyph-name="arrows-h"
      unicode="&#xF07E;"
      horiz-adv-x="512" d=" M105.815 224H406.186L359.978 180.272C350.163 170.983 349.948 155.426 359.504 145.87L370.344 135.03C379.717 125.6570000000001 394.913 125.6570000000001 404.285 135.03L502.628 233.3730000000001C515.125 245.8700000000001 515.125 266.1310000000001 502.628 278.6280000000001L404.285 376.9710000000001C394.912 386.3440000000001 379.716 386.3440000000001 370.344 376.9710000000001L359.504 366.1310000000001C349.948 356.5750000000001 350.163 341.0180000000001 359.978 331.7290000000001L406.186 288H105.815L152.023 331.728C161.838 341.017 162.053 356.574 152.497 366.13L141.657 376.9700000000001C132.284 386.343 117.088 386.343 107.716 376.9700000000001L9.373 278.628C-3.124 266.131 -3.124 245.87 9.373 233.373L107.716 135.03C117.089 125.657 132.285 125.657 141.657 135.03L152.497 145.87C162.053 155.4259999999999 161.838 170.983 152.023 180.2719999999999L105.815 224z" />
    <glyph glyph-name="arrows-v"
      unicode="&#xF07D;"
      horiz-adv-x="256" d=" M160 105.814V406.185L203.728 359.977C213.017 350.1620000000001 228.574 349.947 238.13 359.5030000000001L248.97 370.343C258.343 379.716 258.343 394.9120000000001 248.97 404.284L150.627 502.627C138.13 515.124 117.869 515.124 105.372 502.627L7.029 404.285C-2.344 394.912 -2.344 379.716 7.029 370.344L17.869 359.504C27.425 349.948 42.982 350.163 52.271 359.978L96 406.185V105.814L52.272 152.0220000000001C42.983 161.8370000000001 27.426 162.052 17.87 152.4960000000001L7.03 141.6560000000001C-2.343 132.2830000000001 -2.343 117.0870000000001 7.03 107.715L105.373 9.372C117.87 -3.125 138.131 -3.125 150.628 9.372L248.971 107.715C258.344 117.088 258.344 132.2840000000001 248.971 141.6560000000001L238.131 152.4960000000001C228.575 162.052 213.018 161.8370000000001 203.729 152.0220000000001L160 105.814z" />
    <glyph glyph-name="arrows"
      unicode="&#xF047;"
      horiz-adv-x="512" d=" M352.634 83.379L278.627 9.372C266.13 -3.125 245.869 -3.125 233.372 9.372L159.365 83.379C149.992 92.752 149.992 107.948 159.365 117.3200000000001L170.205 128.16C179.761 137.716 195.318 137.501 204.607 127.686L228 101.635V228H101.635L127.686 204.608C137.501 195.319 137.716 179.762 128.16 170.206L117.32 159.3660000000001C107.947 149.9930000000001 92.751 149.9930000000001 83.379 159.3660000000001L9.373 233.373C-3.124 245.87 -3.124 266.131 9.373 278.628L83.38 352.635C92.753 362.008 107.949 362.008 117.321 352.635L128.161 341.795C137.717 332.239 137.502 316.681 127.687 307.393L101.635 284H228V410.365L204.608 384.314C195.319 374.499 179.762 374.284 170.206 383.8400000000001L159.366 394.68C149.993 404.053 149.993 419.249 159.366 428.621L233.373 502.628C245.87 515.125 266.1310000000001 515.125 278.6280000000001 502.628L352.6350000000001 428.621C362.0080000000001 419.248 362.0080000000001 404.052 352.6350000000001 394.68L341.7950000000001 383.8400000000001C332.2390000000001 374.284 316.6820000000001 374.499 307.3930000000001 384.314L284 410.365V284H410.365L384.314 307.392C374.499 316.681 374.2840000000001 332.238 383.8400000000001 341.794L394.68 352.634C404.053 362.007 419.249 362.007 428.621 352.634L502.628 278.627C515.125 266.13 515.125 245.869 502.628 233.372L428.621 159.365C419.248 149.992 404.052 149.992 394.68 159.365L383.84 170.2049999999999C374.284 179.7609999999999 374.499 195.3179999999999 384.314 204.6069999999999L410.365 228H284V101.635L307.392 127.686C316.681 137.501 332.238 137.716 341.794 128.16L352.634 117.32C362.007 107.948 362.007 92.752 352.634 83.379z" />
    <glyph glyph-name="asterisk"
      unicode="&#xF069;"
      horiz-adv-x="512" d=" M478.21 177.907L336 256L478.21 334.093C490.0050000000001 340.5700000000001 494.171 355.4770000000001 487.442 367.13L467.962 400.8710000000001C461.234 412.524 446.242 416.37 434.735 409.394L296 325.2820000000001L299.475 487.486C299.763 500.939 288.937 512 275.48 512H236.52C223.064 512 212.237 500.939 212.526 487.486L216 325.2820000000001L77.265 409.3930000000001C65.759 416.3690000000001 50.766 412.523 44.038 400.87L24.558 367.129C17.83 355.476 21.996 340.569 33.791 334.092L176 256L33.79 177.907C21.995 171.43 17.829 156.523 24.558 144.87L44.038 111.129C50.766 99.476 65.759 95.63 77.265 102.606L216 186.718L212.525 24.514C212.237 11.061 223.064 0 236.52 0H275.481C288.937 0 299.764 11.061 299.476 24.514L296 186.718L434.735 102.607C446.241 95.631 461.234 99.477 467.962 111.1300000000001L487.442 144.8710000000001C494.17 156.5240000000001 490.005 171.4300000000001 478.21 177.9070000000001z" />
    <glyph glyph-name="at"
      unicode="&#xF1FA;"
      horiz-adv-x="512" d=" M256 504C118.941 504 8 393.081 8 256C8 118.941 118.919 8 256 8C304.154 8 351.342 22.14 391.408 48.223C403.413 56.038 406.033 72.511 396.9600000000001 83.595L386.783 96.028C379.112 105.399 365.6040000000001 107.695 355.4100000000001 101.157C325.92 82.243 291.314 72 256 72C154.542 72 72 154.542 72 256S154.542 440 256 440C356.139 440 440 382.381 440 280C440 241.214 418.907 200.258 381.83 196.307C364.481 196.761 364.92 209.164 368.354 226.331L391.787 347.4410000000001C394.653 362.25 383.308 376 368.225 376H323.2440000000001A13.518 13.518 0 0 1 309.812 364.007L309.802 363.915C295.105 381.8160000000001 269.3540000000001 385.69 249.831 385.69C175.251 385.69 112 323.456 112 234.23C112 168.927 148.785 128.36 208 128.36C234.9840000000001 128.36 265.3690000000001 143.997 282.9910000000001 166.693C292.5130000000001 132.589 323.6040000000001 132.59 353.701 132.59C462.609 132.59 504 204.202 504 280C504 416.347 394.023 504 256 504zM234.32 199.57C212.071 199.57 198.25 215.193 198.25 240.341C198.25 285.334 229.029 313.07 256.88 313.07C279.1720000000001 313.07 292.481 297.829 292.481 272.3C292.481 227.239 258.606 199.57 234.32 199.57z" />
    <glyph glyph-name="backward"
      unicode="&#xF04A;"
      horiz-adv-x="512" d=" M11.5 231.4L203.5 71.4C224.1 54.2 256 68.6 256 96V416C256 443.4 224.1 457.8 203.5 440.6L11.5 280.6C-3.8 267.8 -3.8 244.2 11.5 231.4zM267.5 231.4L459.5 71.4C480.1 54.2 512 68.6 512 96V416C512 443.4 480.1 457.8 459.5 440.6L267.5 280.6C252.2 267.8 252.2 244.2 267.5 231.4z" />
    <glyph glyph-name="badge-check"
      unicode="&#xF336;"
      horiz-adv-x="512" d=" M454.928 173.595C469.647 141.167 463.686 101.648 437.019 74.981C410.445 48.407 370.9890000000001 42.282 338.405 57.072C325.885 23.73 293.716 0 256 0S186.115 23.73 173.595 57.072C141.041 42.296 101.578 48.384 74.981 74.981C48.314 101.648 42.354 141.167 57.072 173.595C23.73 186.115 0 218.284 0 256S23.73 325.885 57.072 338.405C42.353 370.833 48.314 410.352 74.981 437.019C101.649 463.686 141.168 469.646 173.595 454.928C186.115 488.27 218.284 512 256 512S325.885 488.27 338.405 454.928C370.833 469.647 410.351 463.687 437.019 437.019C463.686 410.352 469.646 370.833 454.928 338.405C488.27 325.885 512 293.716 512 256S488.27 186.115 454.928 173.595zM219.314 130.059L403.314 314.0590000000001C409.562 320.307 409.562 330.438 403.314 336.6860000000001L380.687 359.3130000000001C374.439 365.5610000000001 364.308 365.562 358.059 359.3130000000001L208 209.255L137.941 279.314C131.693 285.562 121.562 285.562 115.313 279.314L92.686 256.687C86.438 250.439 86.438 240.308 92.686 234.06L196.686 130.06C202.935 123.81 213.066 123.81 219.314 130.059z" />
    <glyph glyph-name="badge"
      unicode="&#xF335;"
      horiz-adv-x="512" d=" M512 256C512 293.7 488.3 325.9 454.9 338.4C469.6 370.8 463.7 410.3 437 437C410.3 463.7 370.8 469.6 338.4 454.9C325.9 488.3 293.7 512 256 512S186.1 488.3 173.6 454.9C141.2 469.6 101.6 463.7 75 437C48.3 410.3 42.4 370.8 57.1 338.4C23.7 325.9 0 293.7 0 256S23.7 186.1 57.1 173.6C42.4 141.2000000000001 48.3 101.6 75 75C101.6 48.4 141.1 42.3 173.6 57.1C186.1 23.8 218.3 0 256 0S325.9 23.7 338.4 57.1C371 42.3 410.4 48.4 437 75C463.7 101.7 469.6 141.2 454.9 173.6C488.3 186.1 512 218.3 512 256z" />
    <glyph glyph-name="balance-scale"
      unicode="&#xF24E;"
      horiz-adv-x="640" d=" M352 64H520C533.255 64 544 53.255 544 40V24C544 10.745 533.255 0 520 0H120C106.745 0 96 10.745 96 24V40C96 53.255 106.745 64 120 64H288V358.676C264.469 368.9600000000001 246.836 390.222 241.603 416H120C106.745 416 96 426.745 96 440V456C96 469.255 106.745 480 120 480H255.999C270.594 499.43 293.828 512 320 512S369.406 499.43 384.001 480H520C533.255 480 544 469.255 544 456V440C544 426.745 533.255 416 520 416H398.397C393.164 390.222 375.531 368.9600000000001 352 358.676V64zM639.981 176C639.982 192.182 641.323 184.726 554.933 357.506C537.286 392.8 486.747 392.8640000000001 469.068 357.506C381.94 183.25 384.019 191.669 384.019 176H384C384 131.817 441.308 96 512 96S640 131.817 640 176H639.981zM512 336L584 192H440L512 336zM255.981 176C255.982 192.182 257.323 184.726 170.933 357.506C153.286 392.8 102.747 392.8640000000001 85.068 357.506C-2.06 183.25 0.019 191.669 0.019 176H0C0 131.817 57.308 96 128 96S256 131.817 256 176H255.981zM128 336L200 192H56L128 336z" />
    <glyph glyph-name="ban"
      unicode="&#xF05E;"
      horiz-adv-x="512" d=" M256 504C119.034 504 8 392.967 8 256S119.034 8 256 8S504 119.034 504 256S392.967 504 256 504zM386.108 386.108C451.556 320.6600000000001 456.108 220.627 406.7850000000001 150.471L150.47 406.784C220.674 456.14 320.6960000000001 451.519 386.108 386.108zM125.892 125.892C60.444 191.34 55.892 291.373 105.215 361.529L361.53 105.216C291.327 55.86 191.304 60.48 125.892 125.892z" />
    <glyph glyph-name="barcode"
      unicode="&#xF02A;"
      horiz-adv-x="512" d=" M0 64V448H18V64H0zM26.857 64.273V448H36V64.273H26.857zM54 64.273V448H62.857V64.273H54zM98.857 64.273V448H107.714V64.273H98.857zM134.857 64.273V448H152.571V64.273H134.857zM179.714 64.273V448H188.571V64.273H179.714zM197.714 64.273V448H206.571V64.273H197.714zM215.714 64.273V448H224.571V64.273H215.714zM251.429 64.273V448H269.429V64.273H251.429zM296.286 64.273V448H314.286V64.273H296.286zM332.2850000000001 64.273V448H350.286V64.273H332.2850000000001zM368.286 64.273V448H386.287V64.273H368.286zM395.1430000000001 64.273V448H413.1430000000001V64.273H395.1430000000001zM440.2860000000001 64.273V448H467.143V64.273H440.2860000000001zM476.0000000000001 64.273V448H485.143V64.273H476zM494.0000000000001 64V448H512V64H494z" />
    <glyph glyph-name="bars"
      unicode="&#xF0C9;"
      horiz-adv-x="448" d=" M16 380H432C440.837 380 448 387.163 448 396V436C448 444.837 440.837 452 432 452H16C7.163 452 0 444.837 0 436V396C0 387.163 7.163 380 16 380zM16 220H432C440.837 220 448 227.163 448 236V276C448 284.837 440.837 292 432 292H16C7.163 292 0 284.837 0 276V236C0 227.163 7.163 220 16 220zM16 60H432C440.837 60 448 67.163 448 76V116C448 124.837 440.837 132 432 132H16C7.163 132 0 124.837 0 116V76C0 67.163 7.163 60 16 60z" />
    <glyph glyph-name="bath"
      unicode="&#xF2CD;"
      horiz-adv-x="512" d=" M488 256H80V400C80 417.645 94.355 432 112 432C123.351 432 133.332 426.055 139.015 417.12C122.523 391.913 124.328 357.544 145.853 334.0850000000001C141.677 329.372 141.832 322.169 146.344 317.6570000000001L157.658 306.343C162.344 301.6570000000001 169.942 301.6570000000001 174.629 306.343L269.659 401.372C274.345 406.058 274.345 413.656 269.659 418.343L258.345 429.6570000000001C253.833 434.169 246.63 434.323 241.917 430.148C223.968 446.617 199.623 451.577 177.739 445.5130000000001C163.281 466.333 139.212 480 112 480C67.888 480 32 444.112 32 400V256H24C10.745 256 0 245.255 0 232V216C0 202.745 10.745 192 24 192H32V160C32 131.57 44.362 106.031 64 88.453V56C64 42.745 74.745 32 88 32H104C117.255 32 128 42.745 128 56V64H384V56C384 42.745 394.745 32 408 32H424C437.255 32 448 42.745 448 56V88.453C467.638 106.031 480 131.57 480 160V192H488C501.255 192 512 202.745 512 216V232C512 245.255 501.255 256 488 256z" />
    <glyph glyph-name="battery-bolt"
      unicode="&#xF374;"
      horiz-adv-x="640" d=" M64 160H242.778L228.605 96H48C21.49 96 0 117.49 0 144V368C0 394.51 21.49 416 48 416H163.944L156.281 352H64V160zM428.778 320H336.457L364.151 453.589C367.4 466.913 358.205 480 345.6 480H236.8C227.177 480 219.04 472.208 217.769 461.775L192.171 248C190.636 235.4100000000001 199.603 224.225 211.202 224.225H306.163L269.3160000000001 57.843C266.44 44.557 275.728 32 287.993 32C294.673 32 301.094 35.827 304.616 42.481L445.394 288.478C452.79 302.45 443.564 320 428.778 320zM616 352H608V368C608 394.51 586.51 416 560 416H405.38L395.429 368H428.778C444.89 368 460.011 362.238 471.893 352H544V288H576V224H544V160H427.174L390.548 96H560C586.51 96 608 117.49 608 144V160H616C629.255 160 640 170.745 640 184V328C640 341.255 629.255 352 616 352z" />
    <glyph glyph-name="battery-empty"
      unicode="&#xF244;"
      horiz-adv-x="640" d=" M544 352V288H576V224H544V160H64V352H544M560 416H48C21.49 416 0 394.51 0 368V144C0 117.49 21.49 96 48 96H560C586.51 96 608 117.49 608 144V160H616C629.255 160 640 170.745 640 184V328C640 341.255 629.255 352 616 352H608V368C608 394.51 586.51 416 560 416z" />
    <glyph glyph-name="battery-full"
      unicode="&#xF240;"
      horiz-adv-x="640" d=" M544 352V288H576V224H544V160H64V352H544M560 416H48C21.49 416 0 394.51 0 368V144C0 117.49 21.49 96 48 96H560C586.51 96 608 117.49 608 144V160H616C629.255 160 640 170.745 640 184V328C640 341.255 629.255 352 616 352H608V368C608 394.51 586.51 416 560 416zM512 320H96V192H512V320z" />
    <glyph glyph-name="battery-half"
      unicode="&#xF242;"
      horiz-adv-x="640" d=" M544 352V288H576V224H544V160H64V352H544M560 416H48C21.49 416 0 394.51 0 368V144C0 117.49 21.49 96 48 96H560C586.51 96 608 117.49 608 144V160H616C629.255 160 640 170.745 640 184V328C640 341.255 629.255 352 616 352H608V368C608 394.51 586.51 416 560 416zM320 320H96V192H320V320z" />
    <glyph glyph-name="battery-quarter"
      unicode="&#xF243;"
      horiz-adv-x="640" d=" M544 352V288H576V224H544V160H64V352H544M560 416H48C21.49 416 0 394.51 0 368V144C0 117.49 21.49 96 48 96H560C586.51 96 608 117.49 608 144V160H616C629.255 160 640 170.745 640 184V328C640 341.255 629.255 352 616 352H608V368C608 394.51 586.51 416 560 416zM224 320H96V192H224V320z" />
    <glyph glyph-name="battery-slash"
      unicode="&#xF375;"
      horiz-adv-x="640" d=" M291.843 160L339.326 96H48C21.49 96 0 117.49 0 144V368C0 394.51 21.49 416 48 416H101.907L149.391 352H64V160H291.843zM640 328V184C640 170.745 629.255 160 616 160H608V144C608 117.49 586.51 96 560 96H478.324L514.265 47.558C522.117 36.975 519.903 22.03 509.32 14.178L496.545 4.699A23.759 23.759 0 0 0 482.346 -0.001C475.049 -0.001 467.846 3.334 463.165 9.644L125.735 464.442C117.883 475.025 120.097 489.97 130.68 497.822L143.455 507.3A23.759 23.759 0 0 0 157.654 512C164.951 512 172.154 508.665 176.835 502.355L240.905 416H560C586.51 416 608 394.51 608 368V352H616C629.255 352 640 341.255 640 328zM576 288H544V352H288.389L430.84 160H544V224H576V288z" />
    <glyph glyph-name="battery-three-quarters"
      unicode="&#xF241;"
      horiz-adv-x="640" d=" M544 352V288H576V224H544V160H64V352H544M560 416H48C21.49 416 0 394.51 0 368V144C0 117.49 21.49 96 48 96H560C586.51 96 608 117.49 608 144V160H616C629.255 160 640 170.745 640 184V328C640 341.255 629.255 352 616 352H608V368C608 394.51 586.51 416 560 416zM416 320H96V192H416V320z" />
    <glyph glyph-name="bed"
      unicode="&#xF236;"
      horiz-adv-x="576" d=" M552 224C565.255 224 576 213.255 576 200V64H480V128H96V64H0V424C0 437.255 10.745 448 24 448H72C85.255 448 96 437.255 96 424V224H552zM192 416C147.817 416 112 380.183 112 336S147.817 256 192 256S272 291.817 272 336S236.183 416 192 416zM576 288C576 341.019 533.019 384 480 384H312C298.745 384 288 373.255 288 360V256H576V288z" />
    <glyph glyph-name="beer"
      unicode="&#xF0FC;"
      horiz-adv-x="448" d=" M368 416H320V456C320 469.255 309.255 480 296 480H24C10.745 480 0 469.255 0 456V56C0 42.745 10.745 32 24 32H296C309.255 32 320 42.745 320 56V98.11L400.606 134.087C429.396 146.937 448 175.612 448 207.14V336C448 380.112 412.112 416 368 416zM384 207.14A16.018 16.018 0 0 0 374.521 192.529L320 168.195V352H368C376.822 352 384 344.822 384 336V207.14zM208 128C199.164 128 192 135.164 192 144V368C192 376.836 199.164 384 208 384S224 376.836 224 368V144C224 135.164 216.836 128 208 128zM112 128C103.164 128 96 135.164 96 144V368C96 376.836 103.164 384 112 384S128 376.836 128 368V144C128 135.164 120.836 128 112 128z" />
    <glyph glyph-name="bell-slash"
      unicode="&#xF1F6;"
      horiz-adv-x="576" d=" M78.107 145.941C47.958 115.792 69.325 64 112.048 64H224C224 28.654 252.654 0 288 0C323.346 0 352 28.654 352 64H384.685L127.848 290.621C125.65 193.543 99.409 167.243 78.107 145.941zM264 64C264 50.766 274.766 40 288 40A8 8 0 0 0 288 24C265.944 24 248 41.944 248 64H264zM569.896 20.267L559.134 8.181C550.219 -1.831 534.801 -2.7860000000001 524.697 6.048L8.256 457.607C-1.848 466.442 -2.811 481.72 6.104 491.733L16.865 503.819C25.781 513.831 41.199 514.786 51.303 505.951L165.113 406.439C189.13 435.217 223.059 455.435 261.663 461.829A31.85 31.85 0 0 0 256 480C256 497.673 270.327 512 288 512S320 497.673 320 480C320 473.25 317.905 466.992 314.337 461.83C390.169 449.269 448 383.394 448 304C448 195.882 475.634 168.191 497.884 145.941C510.033 133.792 513.807 118.165 511.214 103.8200000000001L567.744 54.393C577.8480000000001 45.5580000000001 578.811 30.28 569.8960000000001 20.2670000000001z" />
    <glyph glyph-name="bell"
      unicode="&#xF0F3;"
      horiz-adv-x="448" d=" M433.884 145.941C411.634 168.191 384 195.882 384 304C384 383.394 326.169 449.269 250.337 461.83A31.845000000000002 31.845000000000002 0 0 1 256 480C256 497.673 241.673 512 224 512S192 497.673 192 480C192 473.25 194.095 466.992 197.663 461.83C121.831 449.269 64 383.394 64 304C64 195.882 36.357 168.191 14.107 145.941C-16.042 115.792 5.325 64 48.048 64H160C160 28.654 188.654 0 224 0S288 28.654 288 64H399.943C442.581 64 464.094 115.731 433.884 145.941zM224 40A8 8 0 0 0 224 24C201.944 24 184 41.944 184 64H200C200 50.766 210.766 40 224 40z" />
    <glyph glyph-name="birthday-cake"
      unicode="&#xF1FD;"
      horiz-adv-x="448" d=" M448 128C419.98 128 416.74 160 373.5 160C330.07 160 326.675 128 298.75 128C271.055 128 267.296 160 224 160C181.158 160 176.782 128 149.5 128C121.352 128 118.298 160 74.75 160C31.203 160 28.097 128 0 128V208C0 234.5 21.5 256 48 256H64V400H128V256H192V400H256V256H320V400H384V256H400C426.5 256 448 234.5 448 208V128zM448 0H0V96C43.356 96 46.767 128 74.75 128C102.701 128 106.003 96 149.5 96C192.343 96 196.717 128 224 128C252.148 128 255.201 96 298.75 96C342.107 96 345.517 128 373.5 128C400.988 128 404.752 96 448 96V0zM96 416C78.25 416 64 430.25 64 448C64 479 96 471 96 512C108 512 128 482.5 128 456S113.75 416 96 416zM224 416C206.25 416 192 430.25 192 448C192 479 224 471 224 512C236 512 256 482.5 256 456S241.75 416 224 416zM352 416C334.25 416 320 430.25 320 448C320 479 352 471 352 512C364 512 384 482.5 384 456S369.75 416 352 416z" />
    <glyph glyph-name="bold"
      unicode="&#xF032;"
      horiz-adv-x="384" d=" M304.793 268.1090000000001C338.432 286.646 358.45 322.269 358.45 363.802C358.45 412.038 332.2 451.428 289.824 467.981C265.138 477.99 240.849 480 209.661 480H24C15.163 480 8 472.837 8 464V430.951C8 422.114 15.163 414.951 24 414.951H57.113V96.4210000000001H24C15.163 96.4210000000001 8 89.258 8 80.4210000000001V48C8 39.163 15.163 32 24 32H219.69C243.893 32 264.524 33.289 286.556 39.584C337.52 54.807 376 101.353 376 161.986C376 214.154 349.427 253.67 304.793 268.109zM142.217 411.1910000000001H209.661C225.955 411.1910000000001 237.197 409.1720000000001 247.186 404.474C263.014 395.995 272.092 377.972 272.092 355.028C272.092 319.999 251.772 298.2380000000001 219.063 298.2380000000001H142.217V411.1910000000001zM254.859 105.716C244.719 101.66 232.182 100.809 223.45 100.809H142.217V230.057H226.584C266.229 230.057 289.641 204.677 289.641 167C289.642 138.575 275.981 114.517 254.8590000000001 105.716z" />
    <glyph glyph-name="bolt"
      unicode="&#xF0E7;"
      horiz-adv-x="320" d=" M295.973 352H180.572L215.19 481.816C219.25 497.044 207.756 512 192 512H56C43.971 512 33.8 503.095 32.211 491.172L0.215 251.1720000000001C-1.704 236.783 9.504 224 24.004 224H142.705L96.646 29.534C93.05 14.351 104.659 0 119.992 0C128.342 0 136.368 4.374 140.77 11.978L316.7430000000001 315.975C325.9870000000001 331.942 314.4550000000001 352 295.9730000000001 352z" />
    <glyph glyph-name="bomb"
      unicode="&#xF1E2;"
      horiz-adv-x="512" d=" M440.5 423.5L388.5 371.5L415 345C424.4 335.6 424.4 320.4 415 311.1L397.6 293.7C409.4000000000001 267.6 416 238.6 416 208.1C416 93.2000000000001 322.9 0.1 208 0.1S0 93.1 0 208S93.1 416 208 416C238.5 416 267.5 409.4 293.6 397.6L311 415C320.4 424.4 335.6 424.4 344.9 415L371.4 388.5L423.4 440.5L440.5 423.5zM500 452H476C469.4 452 464 446.6 464 440S469.4 428 476 428H500C506.6 428 512 433.4 512 440S506.6 452 500 452zM440 512C433.4 512 428 506.6 428 500V476C428 469.4 433.4 464 440 464S452 469.4 452 476V500C452 506.6 446.6 512 440 512zM473.9 457L490.9 474C495.6 478.7 495.6 486.3 490.9 491C486.2 495.7 478.6 495.7 473.9 491L456.9 474C452.2 469.3 452.2 461.7 456.9 457C461.7 452.3 469.3 452.3 473.9 457zM406.1 457C410.8 452.3 418.4 452.3 423.1 457C427.8 461.7 427.8 469.3 423.1 474L406.1 491C401.4 495.7 393.8 495.7 389.1 491C384.4 486.3 384.4 478.7 389.1 474L406.1 457zM473.9 423C469.2 427.7 461.6 427.7 456.9 423C452.2 418.3 452.2 410.7 456.9 406L473.9 389C478.6 384.3 486.2 384.3 490.9 389C495.6 393.7 495.6 401.3 490.9 406L473.9 423zM112 240C112 275.3 140.7 304 176 304C184.8 304 192 311.2 192 320S184.8 336 176 336C123.1 336 80 292.9 80 240C80 231.2 87.2 224 96 224S112 231.2 112 240z" />
    <glyph glyph-name="book"
      unicode="&#xF02D;"
      horiz-adv-x="448" d=" M448 152V488C448 501.3 437.3 512 424 512H96C43 512 0 469 0 416V96C0 43 43 0 96 0H424C437.3 0 448 10.7 448 24V40C448 47.5 444.5 54.3 439.1 58.7C434.9000000000001 74.1 434.9000000000001 118 439.1 133.4C444.5 137.7 448 144.5 448 152zM128 378C128 381.3 130.7 384 134 384H346C349.3 384 352 381.3 352 378V358C352 354.7 349.3 352 346 352H134C130.7 352 128 354.7 128 358V378zM128 314C128 317.3 130.7 320 134 320H346C349.3 320 352 317.3 352 314V294C352 290.7 349.3 288 346 288H134C130.7 288 128 290.7 128 294V314zM381.4 64H96C78.3 64 64 78.3 64 96C64 113.6 78.4 128 96 128H381.4C379.5 110.9 379.5 81.1 381.4 64z" />
    <glyph glyph-name="bookmark"
      unicode="&#xF02E;"
      horiz-adv-x="384" d=" M0 0V464C0 490.51 21.49 512 48 512H336C362.51 512 384 490.51 384 464V0L192 112L0 0z" />
    <glyph glyph-name="briefcase"
      unicode="&#xF0B1;"
      horiz-adv-x="512" d=" M320 224H512V80C512 53.49 490.51 32 464 32H48C21.49 32 0 53.49 0 80V224H192V204C192 197.373 197.373 192 204 192H308C314.627 192 320 197.373 320 204V224zM512 336V256H0V336C0 362.51 21.49 384 48 384H128V432C128 458.51 149.49 480 176 480H336C362.51 480 384 458.51 384 432V384H464C490.51 384 512 362.51 512 336zM320 416H192V384H320V416z" />
    <glyph glyph-name="building"
      unicode="&#xF1AD;"
      horiz-adv-x="448" d=" M436 32H416V488C416 501.255 405.255 512 392 512H56C42.745 512 32 501.255 32 488V32H12C5.373 32 0 26.627 0 20V0H448V20C448 26.627 442.627 32 436 32zM128 436C128 442.627 133.373 448 140 448H180C186.627 448 192 442.627 192 436V396C192 389.373 186.627 384 180 384H140C133.373 384 128 389.373 128 396V436zM128 340C128 346.627 133.373 352 140 352H180C186.627 352 192 346.627 192 340V300C192 293.373 186.627 288 180 288H140C133.373 288 128 293.373 128 300V340zM180 192H140C133.373 192 128 197.373 128 204V244C128 250.627 133.373 256 140 256H180C186.627 256 192 250.627 192 244V204C192 197.373 186.627 192 180 192zM256 32H192V116C192 122.627 197.373 128 204 128H244C250.627 128 256 122.627 256 116V32zM320 204C320 197.373 314.627 192 308 192H268C261.373 192 256 197.373 256 204V244C256 250.627 261.373 256 268 256H308C314.627 256 320 250.627 320 244V204zM320 300C320 293.373 314.627 288 308 288H268C261.373 288 256 293.373 256 300V340C256 346.627 261.373 352 268 352H308C314.627 352 320 346.627 320 340V300zM320 396C320 389.373 314.627 384 308 384H268C261.373 384 256 389.373 256 396V436C256 442.627 261.373 448 268 448H308C314.627 448 320 442.627 320 436V396z" />
    <glyph glyph-name="bullhorn"
      unicode="&#xF0A1;"
      horiz-adv-x="576" d=" M576 288C576 308.896 562.64 326.666 544 333.2580000000001V448C544 483.346 515.346 512 480 512C415.015 456 337.969 384 208 384H48C21.49 384 0 362.51 0 336V240C0 213.49 21.49 192 48 192H91.263C72.521 127.35 93.742 75.621 110.077 24.56C111.779 19.24 115.28 14.667 119.999 11.68C140.779 -1.475 188.354 -3.977 213.772 6.529C229.818 13.162 233.732 33.952 221.294 46.066C202.786 64.092 191.158 82.976 201.499 106.924A12.278 12.278 0 0 1 200.454 118.597C184.145 143.276 196.873 180.704 228.971 191.349C346.403 184.113 418.591 116.919 480 64C515.346 64 544 92.654 544 128V242.742C562.64 249.334 576 267.1040000000001 576 288zM480 148.145C425.391 193.124 354.967 241.085 256 253.127V322.874C354.967 334.916 425.391 382.876 480 427.856V148.145z" />
    <glyph glyph-name="bullseye"
      unicode="&#xF140;"
      horiz-adv-x="512" d=" M256 440C357.689 440 440 357.705 440 256C440 154.311 357.705 72 256 72C154.311 72 72 154.295 72 256C72 357.689 154.295 440 256 440M256 504C119.033 504 8 392.967 8 256S119.033 8 256 8S504 119.033 504 256S392.967 504 256 504zM256 320C291.29 320 320 291.29 320 256S291.29 192 256 192S192 220.71 192 256S220.71 320 256 320M256 384C185.308 384 128 326.692 128 256S185.308 128 256 128S384 185.308 384 256S326.692 384 256 384z" />
    <glyph glyph-name="calculator"
      unicode="&#xF1EC;"
      horiz-adv-x="448" d=" M0 48V464C0 490.51 21.49 512 48 512H400C426.51 512 448 490.51 448 464V48C448 21.49 426.51 0 400 0H48C21.49 0 0 21.49 0 48zM384 332V436C384 442.627 378.627 448 372 448H76C69.373 448 64 442.627 64 436V332C64 325.373 69.373 320 76 320H372C378.627 320 384 325.373 384 332zM128 204V244C128 250.627 122.627 256 116 256H76C69.373 256 64 250.627 64 244V204C64 197.373 69.373 192 76 192H116C122.627 192 128 197.373 128 204zM384 76V244C384 250.627 378.627 256 372 256H332C325.373 256 320 250.627 320 244V76C320 69.373 325.373 64 332 64H372C378.627 64 384 69.373 384 76zM128 76V116C128 122.627 122.627 128 116 128H76C69.373 128 64 122.627 64 116V76C64 69.373 69.373 64 76 64H116C122.627 64 128 69.373 128 76zM256 204V244C256 250.627 250.627 256 244 256H204C197.373 256 192 250.627 192 244V204C192 197.373 197.373 192 204 192H244C250.627 192 256 197.373 256 204zM256 76V116C256 122.627 250.627 128 244 128H204C197.373 128 192 122.627 192 116V76C192 69.373 197.373 64 204 64H244C250.627 64 256 69.373 256 76z" />
    <glyph glyph-name="calendar-alt"
      unicode="&#xF073;"
      horiz-adv-x="448" d=" M436 352H12C5.4 352 0 357.4 0 364V400C0 426.5 21.5 448 48 448H96V500C96 506.6 101.4 512 108 512H148C154.6 512 160 506.6 160 500V448H288V500C288 506.6 293.4 512 300 512H340C346.6 512 352 506.6 352 500V448H400C426.5 448 448 426.5 448 400V364C448 357.4 442.6 352 436 352zM12 320H436C442.6 320 448 314.6 448 308V48C448 21.5 426.5 0 400 0H48C21.5 0 0 21.5 0 48V308C0 314.6 5.4 320 12 320zM128 116C128 122.6 122.6 128 116 128H76C69.4 128 64 122.6 64 116V76C64 69.4 69.4 64 76 64H116C122.6 64 128 69.4 128 76V116zM128 244C128 250.6 122.6 256 116 256H76C69.4 256 64 250.6 64 244V204C64 197.4 69.4 192 76 192H116C122.6 192 128 197.4 128 204V244zM256 116C256 122.6 250.6 128 244 128H204C197.4 128 192 122.6 192 116V76C192 69.4 197.4 64 204 64H244C250.6 64 256 69.4 256 76V116zM256 244C256 250.6 250.6 256 244 256H204C197.4 256 192 250.6 192 244V204C192 197.4 197.4 192 204 192H244C250.6 192 256 197.4 256 204V244zM384 116C384 122.6 378.6 128 372 128H332C325.4 128 320 122.6 320 116V76C320 69.4 325.4 64 332 64H372C378.6 64 384 69.4 384 76V116zM384 244C384 250.6 378.6 256 372 256H332C325.4 256 320 250.6 320 244V204C320 197.4 325.4 192 332 192H372C378.6 192 384 197.4 384 204V244z" />
    <glyph glyph-name="calendar-check"
      unicode="&#xF274;"
      horiz-adv-x="448" d=" M436 352H12C5.373 352 0 357.373 0 364V400C0 426.51 21.49 448 48 448H96V500C96 506.627 101.373 512 108 512H148C154.627 512 160 506.627 160 500V448H288V500C288 506.627 293.373 512 300 512H340C346.627 512 352 506.627 352 500V448H400C426.51 448 448 426.51 448 400V364C448 357.373 442.627 352 436 352zM12 320H436C442.627 320 448 314.627 448 308V48C448 21.49 426.51 0 400 0H48C21.49 0 0 21.49 0 48V308C0 314.627 5.373 320 12 320zM345.296 224.053L317.127 252.451C312.4600000000001 257.1560000000001 304.862 257.187 300.1570000000001 252.519L194.12 147.335L148.14 193.687C143.473 198.392 135.874 198.423 131.169 193.755L102.772 165.5849999999999C98.067 160.918 98.036 153.3199999999999 102.704 148.6149999999999L185.305 65.3459999999999C189.972 60.6409999999999 197.57 60.6099999999999 202.275 65.2779999999999L345.228 207.0829999999999C349.933 211.7499999999999 349.964 219.3479999999999 345.296 224.0529999999999z" />
    <glyph glyph-name="calendar-edit"
      unicode="&#xF333;"
      horiz-adv-x="448" d=" M436 352H12C5.4 352 0 357.4 0 364V400C0 426.5 21.5 448 48 448H96V500C96 506.6 101.4 512 108 512H148C154.6 512 160 506.6 160 500V448H288V500C288 506.6 293.4 512 300 512H340C346.6 512 352 506.6 352 500V448H400C426.5 448 448 426.5 448 400V364C448 357.4 442.6 352 436 352zM12 320H436C442.6 320 448 314.6 448 308V48C448 21.5 426.5 0 400 0H48C21.5 0 0 21.5 0 48V308C0 314.6 5.4 320 12 320zM220.4 210.4L125.4 115.4L120 67.2C119.3 60.8 124.7 55.3 131.2 56L179.4 61.4L274.4 156.4C276.4 158.4 276.4 161.6 274.4 163.6L227.6 210.4C225.6 212.4 222.4 212.4 220.4 210.4zM330.1 240.7L304.7000000000001 266.1C296.8000000000001 274 284.0000000000001 274 276.1 266.1L250.1 240.1C248.1 238.1 248.1 234.9000000000001 250.1 232.9000000000001L296.9000000000001 186.1C298.9000000000001 184.1 302.1 184.1 304.1 186.1L330.1 212.1C338 220 338 232.8 330.1 240.7000000000001z" />
    <glyph glyph-name="calendar-exclamation"
      unicode="&#xF334;"
      horiz-adv-x="448" d=" M0 364V400C0 426.5 21.5 448 48 448H96V500C96 506.6 101.4 512 108 512H148C154.6 512 160 506.6 160 500V448H288V500C288 506.6 293.4 512 300 512H340C346.6 512 352 506.6 352 500V448H400C426.5 448 448 426.5 448 400V364C448 357.4 442.6 352 436 352H12C5.4 352 0 357.4 0 364zM448 308V48C448 21.5 426.5 0 400 0H48C21.5 0 0 21.5 0 48V308C0 314.6 5.4 320 12 320H436C442.6 320 448 314.6 448 308zM224 120C201.9 120 184 102.1 184 80S201.9 40 224 40S264 57.9 264 80S246.1 120 224 120zM184.8 259.2L192 147.2C192.4 140.9 197.6 136 204 136H244C250.3 136 255.6 140.9 256 147.2L263.2 259.2C263.6 266.1 258.2 272 251.2 272H196.8C189.9 272 184.4 266.1 184.8 259.2z" />
    <glyph glyph-name="calendar-minus"
      unicode="&#xF272;"
      horiz-adv-x="448" d=" M436 352H12C5.4 352 0 357.4 0 364V400C0 426.5 21.5 448 48 448H96V500C96 506.6 101.4 512 108 512H148C154.6 512 160 506.6 160 500V448H288V500C288 506.6 293.4 512 300 512H340C346.6 512 352 506.6 352 500V448H400C426.5 448 448 426.5 448 400V364C448 357.4 442.6 352 436 352zM12 320H436C442.6 320 448 314.6 448 308V48C448 21.5 426.5 0 400 0H48C21.5 0 0 21.5 0 48V308C0 314.6 5.4 320 12 320zM316 128C322.6 128 328 133.4 328 140V180C328 186.6 322.6 192 316 192H132C125.4 192 120 186.6 120 180V140C120 133.4 125.4 128 132 128H316z" />
    <glyph glyph-name="calendar-plus"
      unicode="&#xF271;"
      horiz-adv-x="448" d=" M436 352H12C5.4 352 0 357.4 0 364V400C0 426.5 21.5 448 48 448H96V500C96 506.6 101.4 512 108 512H148C154.6 512 160 506.6 160 500V448H288V500C288 506.6 293.4 512 300 512H340C346.6 512 352 506.6 352 500V448H400C426.5 448 448 426.5 448 400V364C448 357.4 442.6 352 436 352zM12 320H436C442.6 320 448 314.6 448 308V48C448 21.5 426.5 0 400 0H48C21.5 0 0 21.5 0 48V308C0 314.6 5.4 320 12 320zM328 180C328 186.6 322.6 192 316 192H256V252C256 258.6 250.6 264 244 264H204C197.4 264 192 258.6 192 252V192H132C125.4 192 120 186.6 120 180V140C120 133.4 125.4 128 132 128H192V68C192 61.4 197.4 56 204 56H244C250.6 56 256 61.4 256 68V128H316C322.6 128 328 133.4 328 140V180z" />
    <glyph glyph-name="calendar-times"
      unicode="&#xF273;"
      horiz-adv-x="448" d=" M436 352H12C5.4 352 0 357.4 0 364V400C0 426.5 21.5 448 48 448H96V500C96 506.6 101.4 512 108 512H148C154.6 512 160 506.6 160 500V448H288V500C288 506.6 293.4 512 300 512H340C346.6 512 352 506.6 352 500V448H400C426.5 448 448 426.5 448 400V364C448 357.4 442.6 352 436 352zM12 320H436C442.6 320 448 314.6 448 308V48C448 21.5 426.5 0 400 0H48C21.5 0 0 21.5 0 48V308C0 314.6 5.4 320 12 320zM269.3 160L317.4000000000001 208.1C322.1 212.8 322.1 220.4 317.4000000000001 225.1L289.1 253.4000000000001C284.4000000000001 258.1 276.8 258.1 272.1 253.4000000000001L224 205.3L175.9 253.4000000000001C171.2 258.1 163.6 258.1 158.9 253.4000000000001L130.6 225.1C125.9 220.4 125.9 212.8 130.6 208.1L178.7 160L130.6 111.9C125.9 107.2 125.9 99.6 130.6 94.9L158.9 66.6C163.6 61.9 171.2 61.9 175.9 66.6L224 114.7L272.1 66.6C276.8 61.9 284.4000000000001 61.9 289.1 66.6L317.4000000000001 94.9C322.1 99.6 322.1 107.2 317.4000000000001 111.9L269.3 160z" />
    <glyph glyph-name="calendar"
      unicode="&#xF133;"
      horiz-adv-x="448" d=" M12 320H436C442.6 320 448 314.6 448 308V48C448 21.5 426.5 0 400 0H48C21.5 0 0 21.5 0 48V308C0 314.6 5.4 320 12 320zM448 364V400C448 426.5 426.5 448 400 448H352V500C352 506.6 346.6 512 340 512H300C293.4 512 288 506.6 288 500V448H160V500C160 506.6 154.6 512 148 512H108C101.4 512 96 506.6 96 500V448H48C21.5 448 0 426.5 0 400V364C0 357.4 5.4 352 12 352H436C442.6 352 448 357.4 448 364z" />
    <glyph glyph-name="camera-alt"
      unicode="&#xF332;"
      horiz-adv-x="512" d=" M512 368V80C512 53.5 490.5 32 464 32H48C21.5 32 0 53.5 0 80V368C0 394.5 21.5 416 48 416H136L148.3 448.9C155.3 467.6 173.2 480 193.2 480H318.7000000000001C338.7000000000001 480 356.6 467.6 363.6 448.9L376 416H464C490.5 416 512 394.5 512 368zM376 224C376 290.2 322.2 344 256 344S136 290.2 136 224S189.8 104 256 104S376 157.8 376 224zM344 224C344 175.5 304.5 136 256 136S168 175.5 168 224S207.5 312 256 312S344 272.5 344 224zM224 224C224 241.6 238.4 256 256 256C264.8 256 272 263.2 272 272S264.8 288 256 288C220.7 288 192 259.3 192 224C192 215.2 199.2 208 208 208S224 215.2 224 224z" />
    <glyph glyph-name="camera-retro"
      unicode="&#xF083;"
      horiz-adv-x="512" d=" M48 480C21.5 480 0 458.5 0 432V80C0 53.5 21.5 32 48 32H464C490.5 32 512 53.5 512 80V432C512 458.5 490.5 480 464 480H48zM48 448H154C157.3 448 160 445.3 160 442V422C160 418.7 157.3 416 154 416H38C34.7 416 32 418.7 32 422V432C32 440.8 39.2 448 48 448zM474 352H38C34.7 352 32 354.7 32 358V394C32 397.3 34.7 400 38 400H176L206.2 445.3C207.3 447 209.2 448 211.2 448H464C472.8 448 480 440.8 480 432V358C480 354.7 477.3 352 474 352zM256 88C189.8 88 136 141.8 136 208S189.8 328 256 328S376 274.2 376 208S322.2 88 256 88zM256 296C207.5 296 168 256.5 168 208S207.5 120 256 120S344 159.5 344 208S304.5 296 256 296zM208 192C199.2 192 192 199.2 192 208C192 243.3 220.7 272 256 272C264.8 272 272 264.8 272 256S264.8 240 256 240C238.4 240 224 225.6 224 208C224 199.2 216.8 192 208 192z" />
    <glyph glyph-name="camera"
      unicode="&#xF030;"
      horiz-adv-x="512" d=" M512 368V80C512 53.5 490.5 32 464 32H48C21.5 32 0 53.5 0 80V368C0 394.5 21.5 416 48 416H136L148.3 448.9C155.3 467.6 173.2 480 193.2 480H318.7000000000001C338.7000000000001 480 356.6 467.6 363.6 448.9L376 416H464C490.5 416 512 394.5 512 368zM376 224C376 290.2 322.2 344 256 344S136 290.2 136 224S189.8 104 256 104S376 157.8 376 224zM344 224C344 175.5 304.5 136 256 136S168 175.5 168 224S207.5 312 256 312S344 272.5 344 224z" />
    <glyph glyph-name="caret-circle-down"
      unicode="&#xF32D;"
      horiz-adv-x="512" d=" M504 256C504 119 393 8 256 8S8 119 8 256S119 504 256 504S504 393 504 256zM124.5 283.5L247.5 160.5C252.2 155.8 259.8 155.8 264.5 160.5L387.5 283.5C395.1 291.1 389.7 304 379 304H133C122.3 304 116.9 291.1 124.5 283.5z" />
    <glyph glyph-name="caret-circle-left"
      unicode="&#xF32E;"
      horiz-adv-x="512" d=" M256 8C119 8 8 119 8 256S119 504 256 504S504 393 504 256S393 8 256 8zM283.5 387.5L160.5 264.5C155.8 259.8 155.8 252.2 160.5 247.5L283.5 124.5C291.1 116.9 304 122.3 304 133V379C304 389.7 291.1 395.1 283.5 387.5z" />
    <glyph glyph-name="caret-circle-right"
      unicode="&#xF330;"
      horiz-adv-x="512" d=" M256 504C393 504 504 393 504 256S393 8 256 8S8 119 8 256S119 504 256 504zM228.5 124.5L351.5 247.5C356.2 252.2 356.2 259.8 351.5 264.5L228.5 387.5C220.9 395.1 208 389.7 208 379V133C208 122.3 220.9 116.9 228.5 124.5z" />
    <glyph glyph-name="caret-circle-up"
      unicode="&#xF331;"
      horiz-adv-x="512" d=" M8 256C8 393 119 504 256 504S504 393 504 256S393 8 256 8S8 119 8 256zM387.5 228.5L264.5 351.5C259.8 356.2 252.2 356.2 247.5 351.5L124.5 228.5C116.9 220.9 122.3 208 133 208H379C389.7 208 395.1 220.9 387.5 228.5z" />
    <glyph glyph-name="caret-down"
      unicode="&#xF0D7;"
      horiz-adv-x="320" d=" M31.3 320H288.6C306.4000000000001 320 315.3 298.5 302.7000000000001 285.9L174.1 157.2C166.3 149.4 153.6 149.4 145.8 157.2L17.2 285.9C4.6 298.5 13.5 320 31.3 320z" />
    <glyph glyph-name="caret-left"
      unicode="&#xF0D9;"
      horiz-adv-x="192" d=" M192 384.6620000000001V127.338C192 109.52 170.457 100.597 157.858 113.196L29.196 241.858C21.386 249.668 21.386 262.332 29.196 270.142L157.858 398.804C170.457 411.404 192 402.48 192 384.6620000000001z" />
    <glyph glyph-name="caret-right"
      unicode="&#xF0DA;"
      horiz-adv-x="192" d=" M0 127.338V384.6620000000001C0 402.48 21.543 411.403 34.142 398.804L162.804 270.142C170.614 262.332 170.614 249.668 162.804 241.858L34.142 113.196C21.543 100.596 0 109.52 0 127.338z" />
    <glyph glyph-name="caret-square-down"
      unicode="&#xF150;"
      horiz-adv-x="448" d=" M448 432V80C448 53.5 426.5 32 400 32H48C21.5 32 0 53.5 0 80V432C0 458.5 21.5 480 48 480H400C426.5 480 448 458.5 448 432zM92.5 291.5L215.5 168.5C220.2 163.8 227.8 163.8 232.5 168.5L355.5 291.5C363.1 299.1 357.7 312 347 312H101C90.3 312 84.9 299.1 92.5 291.5z" />
    <glyph glyph-name="caret-square-left"
      unicode="&#xF191;"
      horiz-adv-x="448" d=" M400 32H48C21.49 32 0 53.49 0 80V432C0 458.51 21.49 480 48 480H400C426.51 480 448 458.51 448 432V80C448 53.49 426.51 32 400 32zM259.515 387.515L136.485 264.485C131.799 259.799 131.799 252.201 136.485 247.514L259.514 124.485C267.074 116.925 279.999 122.279 279.999 132.97V379.029C280 389.7200000000001 267.074 395.074 259.5150000000001 387.515z" />
    <glyph glyph-name="caret-square-right"
      unicode="&#xF152;"
      horiz-adv-x="448" d=" M48 480H400C426.51 480 448 458.51 448 432V80C448 53.49 426.51 32 400 32H48C21.49 32 0 53.49 0 80V432C0 458.51 21.49 480 48 480zM188.485 124.485L311.514 247.514C316.2 252.2 316.2 259.798 311.514 264.485L188.485 387.515C180.925 395.0750000000001 168 389.721 168 379.0300000000001V132.971C168 122.28 180.926 116.926 188.485 124.485z" />
    <glyph glyph-name="caret-square-up"
      unicode="&#xF151;"
      horiz-adv-x="448" d=" M0 80V432C0 458.51 21.49 480 48 480H400C426.51 480 448 458.51 448 432V80C448 53.49 426.51 32 400 32H48C21.49 32 0 53.49 0 80zM355.515 220.485L232.485 343.515C227.799 348.201 220.201 348.201 215.514 343.515L92.485 220.485C84.925 212.925 90.279 200 100.97 200H347.029C357.72 200 363.074 212.926 355.515 220.485z" />
    <glyph glyph-name="caret-up"
      unicode="&#xF0D8;"
      horiz-adv-x="320" d=" M288.662 160H31.338C13.52 160 4.597 181.543 17.196 194.142L145.858 322.804C153.668 330.6140000000001 166.332 330.6140000000001 174.142 322.804L302.804 194.142C315.404 181.543 306.48 160 288.662 160z" />
    <glyph glyph-name="cart-arrow-down"
      unicode="&#xF218;"
      horiz-adv-x="576" d=" M504.717 192H211.572L218.117 160H486.535C501.936 160 513.351 145.699 509.938 130.681L504.421 106.405C523.112 97.332 536 78.172 536 56C536 24.798 510.481 -0.444 479.176 0.006C449.353 0.4349999999999 424.826 24.6369999999999 424.021 54.453C423.581 70.74 430.106 85.502 440.824 96.001H231.176C241.553 85.835 248 71.674 248 56C248 24.187 221.472 -1.431 189.33 0.062C160.79 1.387 137.579 24.447 136.079 52.979C134.921 75.013 146.515 94.434 164.13 104.5650000000001L93.883 448H24C10.745 448 0 458.745 0 472V488C0 501.255 10.745 512 24 512H126.529C137.93 512 147.757 503.979 150.042 492.81L159.208 448H551.99C567.391 448 578.806 433.699 575.393 418.681L528.12 210.681C525.637 199.754 515.923 192 504.717 192zM403.029 320H360V380C360 386.627 354.627 392 348 392H324C317.373 392 312 386.627 312 380V320H268.971C258.2800000000001 320 252.926 307.074 260.486 299.515L327.515 232.486C332.201 227.8 339.799 227.8 344.486 232.486L411.515 299.515C419.074 307.074 413.72 320 403.029 320z" />
    <glyph glyph-name="cart-plus"
      unicode="&#xF217;"
      horiz-adv-x="576" d=" M504.717 192H211.572L218.117 160H486.535C501.936 160 513.351 145.699 509.938 130.681L504.421 106.405C523.112 97.332 536 78.172 536 56C536 24.798 510.481 -0.444 479.176 0.006C449.353 0.4349999999999 424.826 24.6369999999999 424.021 54.453C423.581 70.74 430.106 85.502 440.824 96.001H231.176C241.553 85.835 248 71.674 248 56C248 24.187 221.472 -1.431 189.33 0.062C160.79 1.387 137.579 24.447 136.079 52.979C134.921 75.013 146.515 94.434 164.13 104.5650000000001L93.883 448H24C10.745 448 0 458.745 0 472V488C0 501.255 10.745 512 24 512H126.529C137.93 512 147.757 503.979 150.042 492.81L159.208 448H551.99C567.391 448 578.806 433.699 575.393 418.681L528.12 210.681C525.637 199.754 515.923 192 504.717 192zM408 344H360V384C360 392.837 352.837 400 344 400H328C319.163 400 312 392.837 312 384V344H264C255.163 344 248 336.837 248 328V312C248 303.163 255.163 296 264 296H312V256C312 247.163 319.163 240 328 240H344C352.837 240 360 247.163 360 256V296H408C416.837 296 424 303.163 424 312V328C424 336.837 416.837 344 408 344z" />
    <glyph glyph-name="certificate"
      unicode="&#xF0A3;"
      horiz-adv-x="512" d=" M458.622 256.0800000000001L504.607 301.0850000000001C518.315 314.062 511.923 337.124 493.943 341.424L431.2930000000001 357.414L448.9540000000001 419.4290000000001C453.9450000000001 437.2670000000001 437.1250000000001 454.092 419.2930000000001 449.1L357.2990000000001 431.433L341.3150000000001 494.104C337.085 511.803 313.765 518.276 300.99 504.772L256 458.43L211.011 504.771C198.381 518.122 174.964 512.005 170.686 494.103L154.702 431.432L92.707 449.099C74.87 454.093 58.056 437.262 63.046 419.428L80.707 357.413L18.057 341.423C0.069 337.122 -6.31 314.0560000000001 7.392 301.0850000000001L53.377 256.0800000000001L7.392 211.076C-6.316 198.0990000000001 0.076 175.037 18.056 170.737L80.706 154.747L63.045 92.732C58.054 74.894 74.874 58.069 92.706 63.061L154.7 80.7280000000001L170.684 18.0570000000001C175.123 -0.5179999999999 198.38 -5.9609999999999 211.009 7.3890000000001L256 53.39L300.989 7.389C313.489 -6.0989999999999 336.976 -0.097 341.314 18.057L357.298 80.728L419.2919999999999 63.061C437.128 58.067 453.9429999999999 74.898 448.9529999999999 92.732L431.2919999999999 154.747L493.9419999999999 170.737C511.9289999999999 175.0390000000001 518.3079999999999 198.1040000000001 504.6059999999999 211.076L458.6219999999999 256.0800000000001z" />
    <glyph glyph-name="chart-area"
      unicode="&#xF1FE;"
      horiz-adv-x="512" d=" M500 128C506.6 128 512 122.6 512 116V76C512 69.4 506.6 64 500 64H12C5.4 64 0 69.4 0 76V436C0 442.6 5.4 448 12 448H52C58.6 448 64 442.6 64 436V128H500zM372.7 352.5L288 296L202.7 409.7C197.6 416.5 187.2 416 182.8 408.7L96 264V160H480L390.1 347.8C386.9000000000001 354.3 378.7000000000001 356.5 372.7000000000001 352.5z" />
    <glyph glyph-name="chart-bar"
      unicode="&#xF080;"
      horiz-adv-x="512" d=" M500 128C506.6 128 512 122.6 512 116V76C512 69.4 506.6 64 500 64H12C5.4 64 0 69.4 0 76V436C0 442.6 5.4 448 12 448H52C58.6 448 64 442.6 64 436V128H500zM192 172V244C192 250.6 186.6 256 180 256H140C133.4 256 128 250.6 128 244V172C128 165.4 133.4 160 140 160H180C186.6 160 192 165.4 192 172zM384 172V308C384 314.6 378.6 320 372 320H332C325.4 320 320 314.6 320 308V172C320 165.4 325.4 160 332 160H372C378.6 160 384 165.4 384 172zM288 172V372C288 378.6 282.6 384 276 384H236C229.4 384 224 378.6 224 372V172C224 165.4 229.4 160 236 160H276C282.6 160 288 165.4 288 172zM480 172V404C480 410.6 474.6 416 468 416H428C421.4 416 416 410.6 416 404V172C416 165.4 421.4 160 428 160H468C474.6 160 480 165.4 480 172z" />
    <glyph glyph-name="chart-line"
      unicode="&#xF201;"
      horiz-adv-x="512" d=" M500 128C506.6 128 512 122.6 512 116V76C512 69.4 506.6 64 500 64H12C5.4 64 0 69.4 0 76V436C0 442.6 5.4 448 12 448H52C58.6 448 64 442.6 64 436V128H500zM456 416H344C322.6 416 311.9 390.1 327 375L359.9 342.1L287.9 269.2L232.3 324.8C227.6 329.5 220.1 329.5 215.4 324.8L96.4 207C91.7 202.4 91.6 194.8 96.2 190.1L124.7 160.7000000000001C129.4 155.9 137.1 155.8000000000001 141.8 160.6L223.9 242.7000000000001L279.4 187.2000000000001C284.1 182.5000000000001 291.7 182.5000000000001 296.4 187.2000000000001L405.6 296.4000000000001L439 263C454.1 247.9 480 258.6 480 280V392C480 405.3 469.3 416 456 416z" />
    <glyph glyph-name="chart-pie"
      unicode="&#xF200;"
      horiz-adv-x="576" d=" M288 499.7V272H515.7C522.6 272 528 277.8 527.7 284.7C521.3000000000001 407.1 423.2000000000001 505.3 300.7000000000001 511.7C293.8000000000001 512 288.0000000000001 506.6 288.0000000000001 499.7zM552.7 224C559.6 224 565 218.2 564.7 211.3C561.9000000000001 158.1 541.5 105.7000000000001 503.5000000000001 63.5C498.9 58.4 490.9 58.1 486.0000000000001 63L325 224H552.7zM401 79C405.8 74.2 405.7 66.2 400.6 61.7C358 23.3 301.6 0 239.8 0C107.6 0.1 -0.2 108.2 0 240.5C0.2 368.6 100.8 473.1 227.3 479.7C234.2 480.1 240 474.6 240 467.7V240L401 79z" />
    <glyph glyph-name="check-circle"
      unicode="&#xF058;"
      horiz-adv-x="512" d=" M504 256C504 119.033 392.967 8 256 8S8 119.033 8 256S119.033 504 256 504S504 392.967 504 256zM227.314 124.686L411.314 308.686C417.562 314.934 417.562 325.065 411.314 331.313L388.687 353.94C382.439 360.189 372.308 360.189 366.059 353.94L216 203.882L145.941 273.9410000000001C139.693 280.189 129.562 280.189 123.313 273.9410000000001L100.686 251.314C94.438 245.0660000000001 94.438 234.935 100.686 228.687L204.686 124.687C210.935 118.438 221.065 118.438 227.314 124.686z" />
    <glyph glyph-name="check-square"
      unicode="&#xF14A;"
      horiz-adv-x="448" d=" M400 32H48C21.49 32 0 53.49 0 80V432C0 458.51 21.49 480 48 480H400C426.51 480 448 458.51 448 432V80C448 53.49 426.51 32 400 32zM195.314 130.059L379.314 314.059C385.562 320.307 385.562 330.438 379.314 336.686L356.687 359.313C350.439 365.561 340.308 365.562 334.059 359.313L184 209.255L113.941 279.314C107.693 285.562 97.562 285.562 91.313 279.314L68.686 256.687C62.438 250.439 62.438 240.308 68.686 234.06L172.686 130.06C178.935 123.81 189.065 123.81 195.314 130.059z" />
    <glyph glyph-name="check"
      unicode="&#xF00C;"
      horiz-adv-x="512" d=" M173.898 72.596L7.498 238.996C-2.499 248.993 -2.499 265.202 7.498 275.2L43.701 311.404C53.698 321.402 69.908 321.402 79.905 311.404L192 199.31L432.0950000000001 439.404C442.0920000000001 449.401 458.302 449.401 468.299 439.404L504.5020000000001 403.2C514.499 393.203 514.499 376.9940000000001 504.5020000000001 366.996L210.1020000000001 72.595C200.1040000000001 62.598 183.8950000000001 62.598 173.8980000000001 72.596z" />
    <glyph glyph-name="chevron-circle-down"
      unicode="&#xF13A;"
      horiz-adv-x="512" d=" M504 256C504 119 393 8 256 8S8 119 8 256S119 504 256 504S504 393 504 256zM273 142.1L408.5 277.6C417.9 287 417.9 302.2000000000001 408.5 311.5L391.5 328.5C382.1 337.9000000000001 366.9 337.9000000000001 357.6 328.5L256 226.9L154.4 328.5C145 337.9 129.8 337.9 120.5 328.5L103.5 311.5C94.1 302.1 94.1 286.9 103.5 277.6L239 142.1C248.4 132.7000000000001 263.6 132.7000000000001 273 142.1z" />
    <glyph glyph-name="chevron-circle-left"
      unicode="&#xF137;"
      horiz-adv-x="512" d=" M256 8C119 8 8 119 8 256S119 504 256 504S504 393 504 256S393 8 256 8zM142.1 239L277.6 103.5C287 94.1 302.2000000000001 94.1 311.5 103.5L328.5 120.5C337.9 129.9 337.9 145.1 328.5 154.4L226.9 256L328.5 357.6C337.9 367 337.9 382.2 328.5 391.5L311.5 408.5C302.1 417.9 286.9 417.9 277.6 408.5L142.1 273C132.7 263.6 132.7 248.4 142.1 239z" />
    <glyph glyph-name="chevron-circle-right"
      unicode="&#xF138;"
      horiz-adv-x="512" d=" M256 504C393 504 504 393 504 256S393 8 256 8S8 119 8 256S119 504 256 504zM369.9 273L234.4 408.5C225 417.9 209.8 417.9 200.5 408.5L183.5 391.5C174.1 382.1 174.1 366.9 183.5 357.6L285.1 256L183.5 154.4C174.1 145 174.1 129.8 183.5 120.5L200.5 103.5C209.9 94.1 225.1 94.1 234.4 103.5L369.9 239C379.3 248.4 379.3 263.6 369.9 273z" />
    <glyph glyph-name="chevron-circle-up"
      unicode="&#xF139;"
      horiz-adv-x="512" d=" M8 256C8 393 119 504 256 504S504 393 504 256S393 8 256 8S8 119 8 256zM239 369.9L103.5 234.4C94.1 225 94.1 209.8 103.5 200.5L120.5 183.5C129.9 174.1 145.1 174.1 154.4 183.5L256 285.1L357.6 183.5C367 174.1 382.2000000000001 174.1 391.5 183.5L408.5 200.5C417.9 209.9 417.9 225.1 408.5 234.4L273 369.9C263.6 379.3 248.4 379.3 239 369.9z" />
    <glyph glyph-name="chevron-double-down"
      unicode="&#xF322;"
      horiz-adv-x="448" d=" M207 34.5L12.7 228.9C3.3 238.3 3.3 253.5 12.7 262.8L35.4 285.5C44.8 294.9 59.9 294.9 69.3 285.5L224 131.5L378.7 285.5C388.1 294.8 403.2 294.8 412.6 285.5L435.3 262.8C444.7 253.4000000000001 444.7 238.2 435.3 228.9000000000001L241 34.5C231.6 25.2 216.4 25.2 207 34.5zM241 226.5L435.3 420.9C444.7 430.3 444.7 445.5 435.3 454.8L412.6 477.5C403.2000000000001 486.9 388.1 486.9 378.7000000000001 477.5L224 323.5L69.3 477.5C59.9 486.8 44.8 486.8 35.4 477.5L12.7 454.8C3.3 445.4 3.3 430.2 12.7 420.9L207 226.5C216.4 217.2 231.6 217.2 241 226.5z" />
    <glyph glyph-name="chevron-double-left"
      unicode="&#xF323;"
      horiz-adv-x="512" d=" M34.5 273L228.9 467.3C238.3 476.7 253.5 476.7 262.8 467.3L285.5 444.6C294.9 435.2 294.9 420.1 285.5 410.7L131.5 256L285.5 101.3C294.8 91.9 294.8 76.8 285.5 67.4L262.8 44.7C253.4 35.3000000000001 238.2 35.3000000000001 228.9 44.7L34.5 239C25.2 248.4 25.2 263.6 34.5 273zM226.5 239L420.8 44.7C430.2 35.3 445.4000000000001 35.3 454.7 44.7L477.4 67.4C486.8 76.8 486.8 91.9 477.4 101.3L323.5 256L477.5 410.7C486.8 420.1 486.8 435.2 477.5 444.6L454.8 467.3C445.4000000000001 476.7 430.2 476.7 420.9000000000001 467.3L226.5 273C217.2 263.6 217.2 248.4 226.5 239z" />
    <glyph glyph-name="chevron-double-right"
      unicode="&#xF324;"
      horiz-adv-x="512" d=" M477.5 239L283.1 44.7C273.7000000000001 35.3 258.5 35.3 249.2 44.7L226.5000000000001 67.4C217.1 76.8 217.1 91.9 226.5000000000001 101.3L380.5 256L226.5 410.7C217.2 420.0999999999999 217.2 435.2 226.5 444.5999999999999L249.2 467.3C258.6 476.6999999999999 273.8 476.6999999999999 283.1 467.3L477.5 273C486.8 263.6 486.8 248.4 477.5 239zM285.5 273L91.1 467.3C81.7 476.7 66.5 476.7 57.2 467.3L34.5 444.6C25.1 435.2 25.1 420.1 34.5 410.7L188.5 256L34.5 101.3C25.2 91.9 25.2 76.8 34.5 67.4L57.2 44.7C66.6 35.3000000000001 81.8 35.3000000000001 91.1 44.7L285.5 239C294.8 248.4 294.8 263.6 285.5 273z" />
    <glyph glyph-name="chevron-double-up"
      unicode="&#xF325;"
      horiz-adv-x="448" d=" M241 477.5L435.3 283.2C444.7 273.8 444.7 258.6 435.3 249.3L412.6 226.6C403.2000000000001 217.2000000000001 388.1 217.2000000000001 378.7000000000001 226.6L224 380.5L69.3 226.5C59.9 217.2 44.8 217.2 35.4 226.5L12.7 249.2C3.3 258.6 3.3 273.8 12.7 283.1L207 477.5C216.4 486.8 231.6 486.8 241 477.5zM207 285.5L12.7 91.1C3.3 81.7000000000001 3.3 66.5 12.7 57.2000000000001L35.4 34.5000000000001C44.8 25.1000000000001 59.9 25.1000000000001 69.3 34.5000000000001L224 188.5000000000001L378.7 34.5000000000001C388.1 25.2 403.2 25.2 412.6 34.5000000000001L435.3 57.2000000000001C444.7 66.6 444.7 81.8000000000001 435.3 91.1L241 285.5C231.6 294.8 216.4 294.8 207 285.5z" />
    <glyph glyph-name="chevron-down"
      unicode="&#xF078;"
      horiz-adv-x="448" d=" M207.029 130.524L12.686 324.868C3.313 334.241 3.313 349.437 12.686 358.809L35.353 381.476C44.71 390.833 59.875 390.851 69.254 381.516L224 227.495L378.745 381.516C388.124 390.851 403.289 390.833 412.646 381.476L435.313 358.809C444.686 349.4360000000001 444.686 334.24 435.313 324.868L240.971 130.524C231.598 121.152 216.402 121.152 207.029 130.524z" />
    <glyph glyph-name="chevron-left"
      unicode="&#xF053;"
      horiz-adv-x="320" d=" M34.52 272.9700000000001L228.87 467.31C238.24 476.68 253.44 476.68 262.81 467.31L285.48 444.64C294.8400000000001 435.28 294.85 420.12 285.5200000000001 410.74L131.49 256L285.51 101.25C294.85 91.87 294.83 76.71 285.47 67.35L262.8 44.68C253.43 35.31 238.23 35.31 228.86 44.68L34.52 239.03C25.15 248.4 25.15 263.6 34.52 272.97z" />
    <glyph glyph-name="chevron-right"
      unicode="&#xF054;"
      horiz-adv-x="320" d=" M285.476 239.029L91.132 44.686C81.759 35.313 66.563 35.313 57.191 44.686L34.524 67.353C25.167 76.7099999999999 25.149 91.8749999999999 34.484 101.254L188.505 256L34.484 410.745C25.149 420.124 25.167 435.289 34.524 444.646L57.191 467.313C66.564 476.686 81.76 476.686 91.132 467.313L285.475 272.9700000000001C294.848 263.598 294.848 248.402 285.476 239.029z" />
    <glyph glyph-name="chevron-square-down"
      unicode="&#xF329;"
      horiz-adv-x="448" d=" M448 432V80C448 53.49 426.51 32 400 32H48C21.49 32 0 53.49 0 80V432C0 458.51 21.49 480 48 480H400C426.51 480 448 458.51 448 432zM240.971 150.059L376.486 285.574C385.859 294.947 385.859 310.1430000000001 376.486 319.515L359.515 336.486C350.142 345.8590000000001 334.946 345.8590000000001 325.574 336.486L224 234.912L122.427 336.485C113.054 345.858 97.858 345.858 88.486 336.485L71.515 319.514C62.142 310.141 62.142 294.9450000000001 71.515 285.573L207.03 150.058C216.402 140.686 231.598 140.686 240.971 150.059z" />
    <glyph glyph-name="chevron-square-left"
      unicode="&#xF32A;"
      horiz-adv-x="448" d=" M400 32H48C21.49 32 0 53.49 0 80V432C0 458.51 21.49 480 48 480H400C426.51 480 448 458.51 448 432V80C448 53.49 426.51 32 400 32zM118.059 239.029L253.574 103.514C262.947 94.141 278.143 94.141 287.515 103.514L304.486 120.485C313.859 129.858 313.859 145.054 304.486 154.4260000000001L202.912 256L304.486 357.573C313.859 366.946 313.859 382.142 304.486 391.514L287.515 408.485C278.142 417.858 262.946 417.858 253.574 408.485L118.059 272.971C108.686 263.598 108.686 248.402 118.059 239.029z" />
    <glyph glyph-name="chevron-square-right"
      unicode="&#xF32B;"
      horiz-adv-x="448" d=" M48 480H400C426.51 480 448 458.51 448 432V80C448 53.49 426.51 32 400 32H48C21.49 32 0 53.49 0 80V432C0 458.51 21.49 480 48 480zM329.941 272.971L194.427 408.485C185.054 417.858 169.858 417.858 160.486 408.485L143.515 391.514C134.142 382.141 134.142 366.945 143.515 357.573L245.088 256L143.515 154.427C134.142 145.054 134.142 129.858 143.515 120.486L160.486 103.515C169.859 94.142 185.055 94.142 194.427 103.515L329.942 239.03C339.314 248.402 339.314 263.598 329.9410000000001 272.971z" />
    <glyph glyph-name="chevron-square-up"
      unicode="&#xF32C;"
      horiz-adv-x="448" d=" M0 80V432C0 458.51 21.49 480 48 480H400C426.51 480 448 458.51 448 432V80C448 53.49 426.51 32 400 32H48C21.49 32 0 53.49 0 80zM207.029 361.941L71.515 226.427C62.142 217.054 62.142 201.858 71.515 192.486L88.486 175.515C97.859 166.142 113.055 166.142 122.427 175.515L224 277.088L325.573 175.514C334.946 166.141 350.142 166.141 359.514 175.514L376.485 192.485C385.858 201.858 385.858 217.054 376.485 226.4260000000001L240.971 361.9410000000001C231.598 371.314 216.402 371.314 207.029 361.9410000000001z" />
    <glyph glyph-name="chevron-up"
      unicode="&#xF077;"
      horiz-adv-x="448" d=" M240.971 381.476L435.314 187.1330000000001C444.687 177.7600000000001 444.687 162.564 435.314 153.192L412.647 130.525C403.29 121.168 388.125 121.15 378.7459999999999 130.485L224 284.505L69.255 130.484C59.876 121.149 44.711 121.167 35.354 130.524L12.687 153.191C3.314 162.564 3.314 177.7600000000001 12.687 187.1320000000001L207.03 381.475C216.402 390.848 231.598 390.848 240.971 381.476z" />
    <glyph glyph-name="circle-notch"
      unicode="&#xF1CE;"
      horiz-adv-x="512" d=" M288 472.944V456.285C288 445.481 295.281 436.126 305.686 433.219C383.204 411.5660000000001 440 340.482 440 256C440 154.311 357.705 72 256 72C154.311 72 72 154.295 72 256C72 340.4700000000001 128.786 411.564 206.312 433.219C216.719 436.126 224 445.483 224 456.288V472.936C224 488.645 209.166 500.089 193.954 496.17C86.603 468.518 7.394 370.794 8.003 254.668C8.723 117.616 119.48 7.712 256.534 8.001C393.255 8.289 504 119.212 504 256C504 371.633 424.86 468.779 317.789 496.236C302.678 500.111 288 488.544 288 472.944z" />
    <glyph glyph-name="circle"
      unicode="&#xF111;"
      horiz-adv-x="512" d=" M256 504C119 504 8 393 8 256S119 8 256 8S504 119 504 256S393 504 256 504z" />
    <glyph glyph-name="clipboard"
      unicode="&#xF328;"
      horiz-adv-x="384" d=" M384 400V48C384 21.49 362.51 0 336 0H48C21.49 0 0 21.49 0 48V400C0 426.51 21.49 448 48 448H128C128 483.29 156.71 512 192 512S256 483.29 256 448H336C362.51 448 384 426.51 384 400zM192 472C178.745 472 168 461.255 168 448S178.745 424 192 424S216 434.745 216 448S205.255 472 192 472M288 358V378A6 6 0 0 1 282 384H102A6 6 0 0 1 96 378V358A6 6 0 0 1 102 352H282A6 6 0 0 1 288 358z" />
    <glyph glyph-name="clock"
      unicode="&#xF017;"
      horiz-adv-x="512" d=" M256 504C119 504 8 393 8 256S119 8 256 8S504 119 504 256S393 504 256 504zM313.1 153.9L224.9 218C221.8 220.3 220 223.9 220 227.7V396C220 402.6 225.4 408 232 408H280C286.6 408 292 402.6 292 396V258.3L355.5 212.1C360.9 208.2000000000001 362 200.7000000000001 358.1 195.3L329.9000000000001 156.5C326.0000000000001 151.2 318.5000000000001 150 313.1 153.9z" />
    <glyph glyph-name="clone"
      unicode="&#xF24D;"
      horiz-adv-x="512" d=" M464 512C490.51 512 512 490.51 512 464V176C512 149.49 490.51 128 464 128H176C149.49 128 128 149.49 128 176V464C128 490.51 149.49 512 176 512H464M176 96C131.888 96 96 131.888 96 176V384H48C21.49 384 0 362.51 0 336V48C0 21.49 21.49 0 48 0H336C362.51 0 384 21.49 384 48V96H176z" />
    <glyph glyph-name="closed-captioning"
      unicode="&#xF20A;"
      horiz-adv-x="512" d=" M464 448H48C21.5 448 0 426.5 0 400V112C0 85.5 21.5 64 48 64H464C490.5 64 512 85.5 512 112V400C512 426.5 490.5 448 464 448zM218.1 224.3C220.9 226.8 225.2 226.4000000000001 227.3 223.4L246.8 195.7000000000001C248.5 193.3000000000001 248.3 190.1 246.3 188.0000000000001C192.7 131.2000000000001 73.5 155.9 73.5 255.9000000000001C73.5 353.2000000000001 195.2 375.4000000000001 246 326.0000000000001C248.1 324.0000000000001 248.5 322.8000000000001 247 320.3000000000001L229.5 289.8000000000001C227.6 286.7000000000001 223.3 285.8000000000001 220.4 288.1000000000002C179.6 320.1000000000002 125.8 303.0000000000001 125.8 256.9000000000001C125.9 208.9000000000001 176.9 186.4000000000001 218.1 224.3000000000001zM408.5 224.3C411.3 226.8 415.6 226.4000000000001 417.7 223.4L437.2 195.7000000000001C438.9 193.3000000000001 438.7 190.1 436.7 188.0000000000001C383.2 131.1000000000001 264 155.9 264 255.9000000000001C264 353.2000000000001 385.7 375.4000000000001 436.5 326.0000000000001C438.6 324.0000000000001 439 322.8000000000001 437.5 320.3000000000001L420 289.8C418.1 286.7000000000001 413.8 285.8 410.9 288.1C370.1 320.1 316.3 303 316.3 256.9000000000001C316.3 208.9 367.3 186.4 408.5 224.3z" />
    <glyph glyph-name="cloud-download-alt"
      unicode="&#xF37C;"
      horiz-adv-x="640" d=" M640 160C640 89.308 582.692 32 512 32H144C64.471 32 0 96.471 0 176C0 238.773 40.171 292.155 96.204 311.867A163.68 163.68 0 0 0 96 320C96 408.366 167.634 480 256 480C315.288 480 367.0420000000001 447.752 394.684 399.841C409.935 410.046 428.271 416 448 416C501.019 416 544 373.019 544 320C544 307.8160000000001 541.725 296.164 537.585 285.44C596.017 273.586 640 221.93 640 160zM393.373 224H328V336C328 344.837 320.836 352 312 352H264C255.164 352 248 344.837 248 336V224H182.627C168.373 224 161.234 206.766 171.313 196.686L276.6860000000001 91.313C282.9340000000001 85.065 293.0650000000001 85.065 299.3130000000001 91.313L404.6860000000001 196.686C414.766 206.766 407.627 224 393.3730000000001 224z" />
    <glyph glyph-name="cloud-download"
      unicode="&#xF0ED;"
      horiz-adv-x="640" d=" M537.585 285.44C541.725 296.164 544 307.8160000000001 544 320C544 373.019 501.019 416 448 416C428.271 416 409.935 410.046 394.684 399.841C367.042 447.752 315.288 480 256 480C167.634 480 96 408.366 96 320C96 317.272 96.07 314.5610000000001 96.204 311.867C40.171 292.155 0 238.773 0 176C0 96.471 64.471 32 144 32H512C582.692 32 640 89.308 640 160C640 221.93 596.017 273.586 537.585 285.44zM397.6570000000001 192.402L304.971 99.716C295.598 90.344 280.403 90.344 271.03 99.716L178.344 192.4020000000001C168.971 201.7740000000001 168.971 216.97 178.344 226.3430000000001L189.119 237.1180000000001C198.7 246.6990000000001 214.306 246.4550000000001 223.583 236.5790000000001L256 202.067V328C256 341.255 266.745 352 280 352H296C309.255 352 320 341.255 320 328V202.067L352.419 236.579C361.695 246.454 377.302 246.698 386.883 237.118L397.658 226.343C407.03 216.97 407.03 201.774 397.657 192.4020000000001z" />
    <glyph glyph-name="cloud-upload-alt"
      unicode="&#xF37D;"
      horiz-adv-x="640" d=" M640 160C640 89.308 582.692 32 512 32H144C64.471 32 0 96.471 0 176C0 238.773 40.171 292.155 96.204 311.867A163.68 163.68 0 0 0 96 320C96 408.366 167.634 480 256 480C315.288 480 367.0420000000001 447.752 394.684 399.841C409.935 410.046 428.271 416 448 416C501.019 416 544 373.019 544 320C544 307.8160000000001 541.725 296.164 537.585 285.44C596.017 273.586 640 221.93 640 160zM404.6860000000001 251.314L299.314 356.6860000000001C293.0660000000001 362.934 282.935 362.934 276.687 356.6860000000001L171.314 251.314C161.234 241.2340000000001 168.373 224 182.627 224H248V112C248 103.163 255.164 96 264 96H312C320.836 96 328 103.163 328 112V224H393.373C407.627 224 414.766 241.234 404.686 251.314z" />
    <glyph glyph-name="cloud-upload"
      unicode="&#xF0EE;"
      horiz-adv-x="640" d=" M537.585 285.44C541.725 296.164 544 307.8160000000001 544 320C544 373.019 501.019 416 448 416C428.271 416 409.935 410.046 394.684 399.841C367.042 447.752 315.288 480 256 480C167.635 480 96 408.366 96 320C96 317.272 96.07 314.5610000000001 96.204 311.867C40.171 292.155 0 238.773 0 176C0 96.471 64.471 32 144 32H512C582.692 32 640 89.308 640 160C640 221.93 596.017 273.586 537.585 285.44zM397.6570000000001 221.657L386.8820000000001 210.882C377.3020000000001 201.301 361.6950000000001 201.545 352.4180000000001 211.421L320 245.933V120C320 106.745 309.255 96 296 96H280C266.745 96 256 106.745 256 120V245.933L223.581 211.421C214.305 201.546 198.698 201.302 189.117 210.882L178.342 221.657C168.969 231.03 168.97 246.225 178.342 255.598L271.028 348.284C280.401 357.657 295.596 357.657 304.9690000000001 348.284L397.6560000000001 255.598C407.0300000000001 246.226 407.0300000000001 231.03 397.6570000000001 221.6569999999999z" />
    <glyph glyph-name="cloud"
      unicode="&#xF0C2;"
      horiz-adv-x="640" d=" M537.585 285.44C541.725 296.164 544 307.8160000000001 544 320C544 373.019 501.019 416 448 416C428.271 416 409.935 410.046 394.684 399.841C367.042 447.752 315.288 480 256 480C167.634 480 96 408.366 96 320C96 317.272 96.07 314.5610000000001 96.204 311.867C40.171 292.155 0 238.773 0 176C0 96.471 64.471 32 144 32H512C582.692 32 640 89.308 640 160C640 221.93 596.017 273.586 537.585 285.44z" />
    <glyph glyph-name="club"
      unicode="&#xF327;"
      horiz-adv-x="512" d=" M371.5 342.9C403.1 423.6 343.7 512 256 512C168.2 512 109 423.5 140.5 342.9C65.7 352.8 0 294.7 0 220C0 151.5 55.5 96 124 96C160.5 96 193.3 111.8 216 136.9C215.9 100.2 215.2 84.5 163 61.3C149.2 55.1999999999999 141.6 40.1999999999999 144.7 25.4C147.8 10.6 160.9 0 176 0H336C351.1 0 364.2 10.6 367.3 25.4C370.4000000000001 40.2 362.8 55.1 349 61.3C297.4 84.3 296.2 99.4 296 136.9C318.7 111.8 351.5 96 388 96C456.5 96 512 151.5 512 220C512 294.8 446.2 352.8 371.5 342.9z" />
    <glyph glyph-name="code"
      unicode="&#xF121;"
      horiz-adv-x="640" d=" M278.9 0.5L217.9 18.2C211.5 20 207.9 26.7 209.7 33.1L346.2 503.3C348 509.7 354.7 513.3 361.1 511.5L422.1 493.8C428.5 492 432.1 485.3 430.3 478.9L293.8 8.7C291.9000000000001 2.3 285.3 -1.4 278.9000000000001 0.5zM164.9 112.7L208.4 159.1C213 164 212.7 171.8 207.6 176.3L117 256L207.6 335.7C212.7 340.2 213.1 348 208.4 352.9L164.9 399.3C160.4 404.1 152.8 404.4 147.9 399.8L3.8 264.8C-1.3 260.1 -1.3 252 3.8 247.3L147.9 112.2000000000001C152.8 107.6 160.4 107.8000000000001 164.9 112.7000000000001zM492.1 112.1L636.1999999999999 247.2C641.3 251.8999999999999 641.3 260 636.1999999999999 264.7L492.1 399.9C487.3 404.4 479.7 404.2 475.1 399.4L431.6 353C427 348.1 427.3 340.3 432.4000000000001 335.8L523 256L432.4 176.3C427.3 171.8 426.9 164 431.6 159.1L475.1 112.7000000000001C479.6 107.8000000000001 487.2 107.6 492.1 112.1z" />
    <glyph glyph-name="coffee"
      unicode="&#xF0F4;"
      horiz-adv-x="640" d=" M192 128H384C437 128 480 171 480 224H512C582.6 224 640 281.4 640 352S582.6 480 512 480H120C106.7 480 96 469.3 96 456V224C96 171 139 128 192 128zM512 416C547.3 416 576 387.3 576 352S547.3 288 512 288H480V416H512zM559.7 32H48.3C0.7 32 -12.7 96 12.3 96H595.5999999999999C620.5999999999999 96 607.3999999999999 32 559.6999999999999 32z" />
    </font>
</defs>
</svg>
